<?xml version="1.0" standalone="no"?>
<!DOCTYPE svg PUBLIC "-//W3C//DTD SVG 1.1//EN" "http://www.w3.org/Graphics/SVG/1.1/DTD/svg11.dtd" >
<svg xmlns="http://www.w3.org/2000/svg">
<metadata></metadata>
<defs>
<font id="mouse_memoirsregular" horiz-adv-x="784" >
<font-face units-per-em="2048" ascent="1638" descent="-410" />
<missing-glyph horiz-adv-x="338" />
<glyph unicode="&#xfb01;" horiz-adv-x="897" d="M16 868v181l93 -2q2 58 3 86q1 17 1 28q0 82 29 147.5t78 111t114 69.5t137 24q69 0 135 -7.5t137 -30.5q41 -13 71.5 -26.5t50.5 -30t30 -38t10 -51.5q0 -31 -9.5 -57.5t-29.5 -46t-50.5 -30.5t-72.5 -11q-74 0 -111 28.5t-46 73.5q-44 12 -88 12q-41 0 -71 -8 t-50.5 -34.5t-33 -76.5t-17.5 -135l520 -6q-6 -55 -10.5 -118t-7.5 -130.5t-4 -137t-1 -136.5q0 -78 1.5 -150.5t4 -133.5t6.5 -108t9 -73q-40 0 -83 -2q-37 -2 -83 -5t-92 -9q17 187 22.5 337t5.5 269q0 63 -1 117.5t-3 97.5l-293 6v-78q-2 -125 -3 -258 q-1 -57 -1.5 -121.5t-1 -132t-0.5 -137.5v-137l-194 -6q-4 156 -6.5 286t-3.5 238t-1 194.5v155.5z" />
<glyph unicode="&#xfb02;" horiz-adv-x="842" d="M16 868v174h93q1 59 3 90q1 17 1 29q0 91 22 160.5t63 115.5t99 69.5t129 23.5q59 0 111.5 -11t96.5 -27t78.5 -33t57.5 -29v-3h2v-406.5t0.5 -321t1 -245t0.5 -179.5q1 -175 2 -248q-26 -1 -59 -4q-28 -2 -65.5 -5t-82.5 -8q-6 249 -13.5 457t-14.5 372.5t-13 283.5 t-10 190q-12 3 -24 4.5t-21 1.5q-52 0 -80 -25t-41.5 -65t-17.5 -89.5t-8 -97.5h157v-182h-166v-76q-2 -125 -3 -258q-1 -57 -1.5 -121.5t-1 -132t-0.5 -137.5v-137l-194 -6q-6 256 -8.5 447.5t-2.5 328.5v100h-90z" />
<glyph horiz-adv-x="2048" />
<glyph horiz-adv-x="2048" />
<glyph unicode="&#xd;" horiz-adv-x="338" />
<glyph unicode=" "  horiz-adv-x="338" />
<glyph unicode="&#x09;" horiz-adv-x="338" />
<glyph unicode="&#xa0;" horiz-adv-x="338" />
<glyph unicode="!" horiz-adv-x="360" d="M57 84q0 24 9 44.5t25 36.5t36.5 25t44.5 9t45.5 -9t37 -25t25 -36.5t9.5 -44.5t-9.5 -45t-25 -36.5t-37 -24.5t-45.5 -9t-44.5 9t-36.5 24.5t-25 36.5t-9 45zM66 1448l241 2q-28 -277 -44 -559t-19 -555l-133 -4q-7 275 -18.5 558t-26.5 558z" />
<glyph unicode="&#x22;" horiz-adv-x="571" d="M35 1432q16 -1 28.5 -1.5t23.5 -0.5h23.5h28.5q21 0 35.5 0.5t27.5 0.5t27 0.5t35 0.5q-6 -41 -11 -83t-9.5 -84t-8 -82t-6.5 -76q-7 -84 -12 -163h-137q-5 85 -12 170q-3 36 -6.5 76.5t-7.5 81.5t-9 82t-10 78zM307 1432q16 -1 28.5 -1.5t24 -0.5h24h28.5q21 0 35 0.5 t27.5 0.5t28 0.5t36.5 0.5q-6 -41 -11.5 -83t-10.5 -84t-9 -82t-7 -76q-8 -84 -14 -163h-135q-5 85 -12 170q-3 36 -6.5 76.5t-7.5 81.5t-9 82t-10 78z" />
<glyph unicode="#" horiz-adv-x="659" d="M47 528l4 150h99v110l-101 -2v136l98 2v196l150 -2l-2 -190l80 2v62.5v59.5t0.5 44.5t1.5 17.5t24.5 1t52.5 3l76 4l-6 -188l84 4v-137l-88 -2l-4 -119q20 1 37 1.5t29 0.5h26l-2 -150h-94l-6 -206l-127 -9q-1 28 -1 61q-1 29 -1 68v84h-86l-2 -194l-135 -10l-2 202h-105 zM293 678h82v117l-82 -2v-115z" />
<glyph unicode="$" horiz-adv-x="467" d="M35 860q0 87 43 145t112 78l-8 299h88l-4 -290q35 -2 76.5 -13.5t87.5 -29.5l-12 -172q-21 17 -44.5 27t-43.5 15q-23 6 -45 9q-31 -3 -53.5 -28.5t-22.5 -63.5q0 -35 16 -61t39.5 -48.5t52 -45.5t53 -52t41.5 -67t19 -91q0 -51 -15 -89.5t-39.5 -65.5t-56 -44t-63.5 -24 l8 -311h-88l8 303q-5 0 -21 1t-37.5 5.5t-45 14t-43.5 26.5l8 168q29 -22 59 -34t54 -18q28 -7 55 -8q47 26 47 78q0 26 -16.5 50t-41.5 49t-54.5 53t-54.5 62.5t-41.5 76.5t-16.5 96z" />
<glyph unicode="%" horiz-adv-x="915" d="M31 1053q0 86 16.5 145t44.5 95.5t66 52.5t80 16t79.5 -17.5t65.5 -55t44.5 -96t16.5 -140.5q0 -81 -16.5 -139.5t-44.5 -97t-65.5 -57t-79.5 -18.5t-80 18t-66 56t-44.5 97t-16.5 141zM133 164q44 82 91.5 181.5t95 205.5t92.5 213.5t84 207t69.5 185t48.5 148.5 l158 -25q-48 -99 -103.5 -222.5t-116.5 -268t-125.5 -308t-131.5 -342.5q-31 7 -60 13q-25 5 -53 9t-49 3zM170 1053q0 -116 19.5 -169t48.5 -53t48 53.5t19 168.5q0 116 -19.5 167.5t-47.5 51.5q-15 0 -27.5 -11t-21.5 -37t-14 -68t-5 -103zM471 379q0 85 16.5 144 t44.5 95.5t66 53t80 16.5t80 -17.5t66 -55t44.5 -96t16.5 -140.5q0 -81 -16.5 -140t-44.5 -97t-66 -56t-80 -18t-80 18t-66 55.5t-44.5 96.5t-16.5 141zM610 379q0 -117 19.5 -169t48.5 -52t48 52.5t19 168.5q0 115 -19 167t-48 52q-15 0 -27.5 -11.5t-21.5 -37.5t-14 -67.5 t-5 -102.5z" />
<glyph unicode="&#x26;" horiz-adv-x="936" d="M10 303q-1 71 20 139t55 132t78 124.5t89 116.5q-16 69 -24 125.5t-12 97.5q-4 48 -5 86q1 109 23.5 179.5t58 111t80.5 56.5t90 16q40 0 77 -17t65 -49.5t44.5 -79.5t16.5 -106q0 -56 -17 -110t-45 -105.5t-64.5 -102t-74.5 -100.5q28 -93 66.5 -194t91.5 -201 q5 25 6.5 49.5t1.5 50.5q0 71 -17 142l228 2q2 -23 2 -44.5v-41.5q0 -130 -22 -224.5t-56 -162.5q37 -51 79.5 -98t90.5 -87l-258 -39q-12 16 -24 29t-23 29q-43 -32 -83 -49t-72 -25q-37 -10 -70 -10q-89 0 -162 25t-125 72t-80.5 113.5t-28.5 149.5zM225 356 q0 -61 12.5 -107.5t35 -77.5t52 -46.5t64.5 -15.5q37 0 70 17.5t61 49.5q-72 113 -123.5 221.5t-85.5 208.5q-38 -60 -62 -122.5t-24 -127.5zM389 1192q0 -22 5.5 -65t19.5 -105q31 45 49 86t18 78q0 49 -13 71.5t-30 22.5t-33 -22.5t-16 -65.5z" />
<glyph unicode="'" horiz-adv-x="299" d="M35 1432q16 -1 28.5 -1.5t23.5 -0.5h23.5h28.5q21 0 35.5 0.5t27.5 0.5t27 0.5t35 0.5q-6 -41 -11 -83t-9.5 -84t-8 -82t-6.5 -76q-7 -84 -12 -163h-137q-5 85 -12 170q-3 36 -6.5 76.5t-7.5 81.5t-9 82t-10 78z" />
<glyph unicode="(" horiz-adv-x="520" d="M37 745q0 112 25 235.5t71.5 241t113 220t150.5 172.5l138 -113q-54 -46 -95.5 -105t-72 -125.5t-51 -137t-33 -139t-18 -132.5t-5.5 -117q0 -99 15 -213t46 -224.5t79 -208t114 -162.5l-137 -152q-90 105 -154.5 216t-105.5 230t-60.5 246.5t-19.5 267.5z" />
<glyph unicode=")" horiz-adv-x="520" d="M-14 1501l137 113q84 -70 150.5 -172.5t113 -220t71.5 -241t25 -235.5q0 -140 -19.5 -267.5t-60.5 -246.5t-105.5 -230t-154.5 -216l-137 152q66 65 114 162.5t79 208t46 224.5t15 213q0 53 -5.5 117t-18 132.5t-33 139t-51 137t-71.5 125.5t-95 105z" />
<glyph unicode="*" horiz-adv-x="684" d="M29 1053l40 100q7 19 14 36.5t12.5 31.5t8.5 22t2 8q-1 -1 14.5 -11t39 -25.5t51.5 -34t53 -35.5q-5 35 -9.5 75t-9 73.5t-7 55.5t-2.5 21h8.5h22.5t32 0.5t37 1.5l100 4l-20 -221q27 19 56.5 40t54 38t40 27.5t15.5 9.5q0 -2 3 -11.5t8 -24t11 -32.5t13 -37 q16 -44 36 -98l-182 -55l143 -121l-122 -176l-148 233l-104 -239l-148 157l133 138z" />
<glyph unicode="+" horiz-adv-x="647" d="M49 594v201l174 -4v178h201l-6 -185l180 -4v-184h-184l-4 -176h-185v174h-176z" />
<glyph unicode="," horiz-adv-x="305" d="M33 80q0 24 9.5 46t25.5 38t37.5 25.5t46.5 9.5q24 0 45.5 -9.5t37.5 -25.5t25.5 -38t9.5 -46q0 -37 -7 -67t-20.5 -56.5t-33 -51t-45.5 -50.5l-74 34q7 8 14 19q6 10 13 23.5t12 31.5q-42 8 -69 40t-27 77z" />
<glyph unicode="-" horiz-adv-x="662" d="M57 594v201l549 -15v-184z" />
<glyph unicode="." horiz-adv-x="303" d="M33 82q0 24 9.5 46t25.5 38t37.5 25.5t46.5 9.5q24 0 45.5 -9.5t37.5 -25.5t25.5 -38t9.5 -46q0 -25 -9.5 -46.5t-25.5 -37.5t-37.5 -25.5t-45.5 -9.5q-25 0 -46.5 9.5t-37.5 25.5t-25.5 37.5t-9.5 46.5z" />
<glyph unicode="/" horiz-adv-x="852" d="M18 -23q36 70 80.5 172t93 221t98.5 248.5t97 253.5q110 291 225 615l217 -19q-127 -307 -239 -591q-48 -121 -97 -249t-93 -249.5t-81 -230.5t-59 -191q-43 7 -85 12q-36 5 -78.5 7.5t-78.5 0.5z" />
<glyph unicode="0" horiz-adv-x="823" d="M43 717q0 209 29 353t79.5 233.5t117.5 129.5t143 40t143 -43.5t117 -135t79 -235t29 -342.5q0 -196 -29 -339t-79 -236t-117 -138t-143 -45t-143 43.5t-117.5 135.5t-79.5 235.5t-29 343.5zM270 717q0 -151 11 -259.5t30.5 -178.5t45.5 -103t55 -33t54.5 34t44 104.5 t29.5 179t11 256.5q0 150 -11 258t-29.5 177.5t-44 102.5t-54.5 33t-55 -30t-45.5 -97.5t-30.5 -176.5t-11 -267z" />
<glyph unicode="1" horiz-adv-x="563" d="M-2 1192q81 66 156 132t143 134l211 -12q-16 -291 -23.5 -576t-7.5 -573v-150.5t2 -150.5h-215q5 183 7.5 368.5t2.5 374.5q0 113 -1 223t-3 220l-159 -140z" />
<glyph unicode="2" horiz-adv-x="649" d="M23 1339q32 43 72 69t80 39.5t76.5 18t61.5 4.5q79 0 134.5 -33.5t91 -90t51.5 -130.5t16 -155q0 -114 -25 -226t-69.5 -221.5t-105 -216t-132.5 -209.5h326v-188h-547v201q60 89 122 193t113 216.5t83 229.5t32 231q0 84 -29.5 124t-92.5 40q-29 0 -56 -9.5t-52.5 -25 t-49.5 -36.5t-45 -44z" />
<glyph unicode="3" horiz-adv-x="680" d="M25 1343q48 48 95.5 75.5t89.5 41.5t74.5 17.5t49.5 3.5q61 0 114 -27.5t92 -75.5t61 -112t22 -136q0 -60 -18.5 -117.5t-51.5 -110t-78.5 -98.5t-99.5 -81q48 -22 85 -49.5t65.5 -57.5t48.5 -61.5t34 -61.5q32 -70 41 -143q0 -111 -37 -188.5t-92 -125.5t-117 -69.5 t-112 -21.5q-3 0 -23 2t-53 11t-77 28t-95 53l31 242q35 -40 70.5 -61.5t64.5 -32.5q33 -12 65 -15q34 0 62.5 16.5t48.5 44.5t31.5 63.5t11.5 74.5q0 48 -18.5 89.5t-51.5 73.5t-77 51.5t-95 22.5v162q42 25 79.5 59.5t66 77t45 91.5t16.5 102q0 24 -7 51t-22.5 49.5 t-39 37.5t-56.5 15q-8 0 -24 -3t-38.5 -14t-52.5 -32.5t-67 -58.5z" />
<glyph unicode="4" horiz-adv-x="717" d="M23 494q29 217 50.5 439t30.5 456h218q-23 -175 -40 -360.5t-22 -362.5l178 8q2 71 2 141.5v142.5q0 121 -1.5 241.5t-6.5 242.5l221 2q-18 -452 -18 -895q0 -136 1.5 -271.5t4.5 -271.5l-227 -2q6 122 10.5 244.5t9.5 247.5z" />
<glyph unicode="5" horiz-adv-x="666" d="M37 66l18 196q59 -43 107 -55t76 -12q50 0 84.5 25t55.5 63t30.5 84.5t9.5 89.5q0 67 -17.5 114.5t-46 78t-64 45t-71.5 14.5q-42 0 -85 -11t-81 -32l53 723l451 16v-188l-268 -9l-23 -321q14 2 26 3t23 1q70 0 130 -31t103.5 -87.5t68 -136.5t24.5 -177 q0 -83 -18.5 -165.5t-60.5 -148.5t-111.5 -107.5t-171.5 -41.5q-20 0 -47.5 2t-60 9.5t-67 21.5t-67.5 37z" />
<glyph unicode="6" horiz-adv-x="756" d="M45 666q0 162 17.5 281.5t47.5 204.5t69.5 139t83 85t88 42.5t85.5 11.5q30 0 63 -4q28 -3 63.5 -10.5t70.5 -20.5l-21 -185q-26 20 -51.5 27.5t-50.5 7.5q-57 0 -98 -27.5t-68.5 -76t-44 -115.5t-25.5 -145q23 32 50.5 48.5t50.5 24.5q27 9 55 11q63 0 118 -23t95.5 -77 t64 -143t23.5 -222q0 -139 -30 -237t-79.5 -159.5t-112 -89.5t-126.5 -28q-43 0 -84.5 12t-79 41.5t-69.5 79.5t-55.5 125.5t-36.5 179.5t-13 242zM262 604q0 -124 11 -205t30 -129t43 -67t51 -19q25 0 47 21.5t38.5 61.5t26 98t9.5 131q0 62 -8 113.5t-23.5 88.5t-40 57.5 t-57.5 20.5q-26 -2 -50 -19q-20 -14 -42 -44t-35 -84v-25z" />
<glyph unicode="7" horiz-adv-x="551" d="M25 1217v196l522 10q-41 -177 -77.5 -360t-67.5 -365.5t-56.5 -363t-44.5 -352.5l-219 8q21 149 44.5 298t50.5 300.5t58.5 308t69.5 320.5h-280z" />
<glyph unicode="8" horiz-adv-x="727" d="M49 336q0 115 41.5 194.5t106.5 122.5q-32 29 -59.5 68.5t-47 86.5t-30.5 100t-11 110q0 130 26.5 214.5t70 133t100 67.5t116.5 19q61 0 118.5 -19.5t101 -68.5t70 -133t26.5 -213q0 -116 -42 -211t-108 -154q66 -45 108 -125t42 -192q0 -95 -26.5 -161.5t-70 -109 t-101 -62t-118.5 -19.5q-60 0 -116.5 21.5t-100 65t-70 110t-26.5 155.5zM256 344q0 -61 8.5 -103t23 -68.5t34 -38t40.5 -11.5q22 0 42 11.5t34 37.5t22.5 68t8.5 104q0 46 -8.5 86.5t-22.5 70.5t-34 47t-42 17q-21 0 -40.5 -17t-34 -47t-23 -70.5t-8.5 -86.5zM256 1006 q0 -57 8.5 -107t23 -87.5t34 -59t40.5 -21.5q22 0 42 21.5t34 59t22.5 87.5t8.5 107q0 74 -8.5 126t-22.5 85t-34 48t-42 15q-21 0 -40.5 -14.5t-34 -47t-23 -84.5t-8.5 -128z" />
<glyph unicode="9" horiz-adv-x="754" d="M25 915q0 139 30 237t79.5 159.5t111.5 90t127 28.5q42 0 84 -12t79.5 -42t69.5 -80t55.5 -125.5t36.5 -179.5t13 -241q0 -162 -18 -281.5t-48 -204.5t-69.5 -139t-83 -85t-88 -42.5t-85.5 -11.5q-30 0 -63 4q-28 3 -63 10t-70 20l20 185q26 -20 52 -28.5t51 -8.5 q56 0 96.5 27.5t68 76.5t44.5 115.5t26 144.5q-24 -31 -51 -47t-50 -24q-27 -9 -54 -10q-63 0 -118 22.5t-95.5 76.5t-64 143t-23.5 222zM238 920q0 -62 8 -114t23.5 -89t40 -57.5t57.5 -20.5q26 2 50 19q20 14 41.5 43.5t35.5 84.5v25q0 124 -11 205t-30 129t-43.5 67 t-51.5 19q-24 0 -46 -21.5t-38.5 -61.5t-26 -97.5t-9.5 -130.5z" />
<glyph unicode=":" horiz-adv-x="369" d="M66 82q0 24 9.5 46t25.5 38t37.5 25.5t45.5 9.5q25 0 46.5 -9.5t37.5 -25.5t25.5 -38t9.5 -46q0 -25 -9.5 -46.5t-25.5 -37.5t-37.5 -25.5t-46.5 -9.5q-24 0 -45.5 9.5t-37.5 25.5t-25.5 37.5t-9.5 46.5zM66 786q0 25 9.5 47.5t25.5 38.5t37.5 25.5t45.5 9.5 q25 0 46.5 -9.5t37.5 -25.5t25.5 -38.5t9.5 -47.5q0 -24 -9.5 -45t-25.5 -36.5t-37.5 -25t-46.5 -9.5q-24 0 -45.5 9.5t-37.5 25t-25.5 36.5t-9.5 45z" />
<glyph unicode=";" horiz-adv-x="369" d="M66 80q0 24 9.5 46t25.5 38t37.5 25.5t45.5 9.5q25 0 46.5 -9.5t37.5 -25.5t25.5 -38t9.5 -46q0 -37 -7 -67t-20.5 -56.5t-33 -51t-45.5 -50.5l-74 34q7 8 14 19q6 10 12.5 23.5t12.5 31.5q-42 8 -69 40t-27 77zM66 774q0 25 9.5 47.5t25.5 38.5t37.5 25.5t45.5 9.5 q25 0 46.5 -9.5t37.5 -25.5t25.5 -38.5t9.5 -47.5q0 -24 -9.5 -45t-25.5 -37t-37.5 -25.5t-46.5 -9.5q-24 0 -45.5 9.5t-37.5 25.5t-25.5 37t-9.5 45z" />
<glyph unicode="&#x3c;" horiz-adv-x="565" d="M41 608v199l393 264l86 -184l-323 -168l323 -154l-71 -190z" />
<glyph unicode="=" horiz-adv-x="672" d="M61 430v201l549 -15v-184zM61 760v198l549 -14v-184h-549z" />
<glyph unicode="&#x3e;" horiz-adv-x="565" d="M45 565l324 154l-324 168l86 184l393 -264v-199l-407 -233z" />
<glyph unicode="?" horiz-adv-x="633" d="M29 1331q48 47 96.5 73t88 38.5t66 15t31.5 2.5q60 0 113.5 -24t93 -69t63 -109t23.5 -144q0 -93 -19 -161t-49 -123.5t-67.5 -105t-74 -106t-69 -126.5t-51.5 -166h-135q0 8 -1 14t-1 14q0 63 12.5 117.5t28.5 96.5q18 48 41 89q30 51 65 98t64.5 95.5t49.5 101.5 t20 115q0 56 -12 95t-32 63.5t-46.5 35.5t-55.5 11q-27 0 -54.5 -7.5t-54 -21t-50.5 -31t-43 -38.5zM104 84q0 24 9.5 44.5t25.5 36.5t37 25t45 9t45 -9t36.5 -25t24.5 -36.5t9 -44.5t-9 -45t-24.5 -36.5t-36.5 -24.5t-45 -9t-45 9t-37 24.5t-25.5 36.5t-9.5 45z" />
<glyph unicode="@" horiz-adv-x="1090" d="M45 535q0 145 30 250.5t78 178.5t108 117.5t119 69t112 33t86 8.5t81.5 -7t102 -28t106 -58.5t95 -99.5t68.5 -150.5t26 -211.5q0 -110 -18 -192t-48.5 -137t-71 -82t-85.5 -27q-62 0 -103 32.5t-59 104.5q-28 -53 -69 -83t-95 -30q-71 0 -112.5 67.5t-41.5 213.5 q0 88 16.5 146.5t44.5 94t64 50t74 14.5q21 -2 41 -11q17 -8 36.5 -24.5t35.5 -46.5q2 20 4.5 40t5.5 40l131 -10q-2 -40 -4 -90q-2 -43 -3 -102.5t-1 -131.5q0 -77 9 -109t28 -32q10 0 21 11.5t20 40t14.5 77t5.5 123.5q0 97 -13.5 181.5t-48.5 146t-95 97t-154 35.5 q-92 0 -162 -42.5t-117 -114t-70.5 -165.5t-23.5 -198q0 -102 21.5 -178t56 -127.5t76.5 -79t84 -33.5l-9 -141h-14q-72 0 -126.5 24.5t-95 64.5t-68 91t-45.5 105q-42 125 -48 285zM498 535q0 -33 2.5 -65.5t9.5 -57.5t20.5 -40.5t34.5 -15.5q17 3 35 14q14 10 30 31t27 60 v25.5v25.5t0.5 33.5t1.5 48.5q-14 30 -29.5 46t-29.5 24q-16 9 -31 10q-32 0 -51.5 -37t-19.5 -102z" />
<glyph unicode="A" horiz-adv-x="721" d="M8 4q62 357 112 712t85 716l301 -5q38 -357 91.5 -709.5t125.5 -709.5l-248 -16q-5 69 -9.5 139t-10.5 141q-44 3 -85 6t-83 3h-13q-5 -72 -9 -142t-7 -139zM287 444q21 -2 43 -2h45h65q-17 186 -38 369t-44 369q-20 -184 -38 -367t-33 -369z" />
<glyph unicode="B" horiz-adv-x="713" d="M45 1401q46 14 91.5 22t82.5 12q43 4 82 5q31 0 71.5 -7.5t83.5 -26t84.5 -48t74.5 -74t53 -105t20 -139.5q0 -62 -13.5 -128t-42 -127t-72.5 -112t-105 -83q59 -26 93.5 -65t52.5 -80.5t23 -79t5 -60.5q0 -76 -22.5 -130.5t-57.5 -92t-78.5 -60t-86 -34.5t-79.5 -15.5 t-59 -3.5q-28 1 -57 5q-25 4 -53.5 11.5t-51.5 22.5q6 190 6 379q0 257 -11.5 508t-33.5 506zM276 111q30 11 53 26.5t40 33t28.5 36.5t19.5 37q18 42 21 88q-2 49 -20 89q-8 17 -19 34.5t-27.5 32t-38.5 25t-50 15.5q-3 -105 -5 -208.5t-2 -208.5zM285 608q36 13 64.5 37 t50 53.5t36.5 63t26 66.5q25 77 32 167q0 -1 0 17.5t-4.5 47t-15 62.5t-31.5 64t-54.5 52.5t-83.5 27.5q-6 -165 -11.5 -329t-8.5 -329z" />
<glyph unicode="C" horiz-adv-x="635" d="M39 723q0 153 21.5 267t56 195.5t78 134t88.5 83t87.5 42t73.5 11.5q29 -1 57 -6q24 -5 50.5 -15t46.5 -28l-20 -201q-28 14 -52.5 20.5t-46.5 6.5q-42 0 -74.5 -22.5t-56 -59.5t-40 -84t-26.5 -96q-25 -115 -28 -262q3 -146 29 -260q11 -49 27.5 -95.5t40.5 -83 t56.5 -58.5t75.5 -22q47 0 109 33l37 -198q-39 -18 -77 -27.5t-68 -14.5q-35 -5 -68 -6q-36 0 -77.5 13t-83.5 44.5t-81 86t-69 137t-48 197.5t-18 268z" />
<glyph unicode="D" horiz-adv-x="737" d="M59 -12q13 204 20 410.5t7 416.5q0 159 -4 315t-12 312q24 2 47 3t45 1q166 0 270 -56.5t162.5 -158t80 -242t21.5 -309.5q0 -155 -22.5 -267.5t-59.5 -191.5t-83.5 -128t-94.5 -76t-93 -36.5t-79 -9.5zM279 284.5q0 -67.5 2 -137.5q46 5 80 35t57.5 75.5t38 103 t22.5 118t10.5 119.5t2.5 109q0 49 -2 104.5t-8.5 110.5t-19.5 107t-34 95.5t-51.5 74.5t-73.5 44q-6 -110 -10.5 -214.5t-7.5 -206.5t-4.5 -202.5t-1.5 -201.5v-133.5z" />
<glyph unicode="E" horiz-adv-x="614" d="M66 -8q9 186 14.5 368.5t5.5 368.5q0 178 -4.5 353.5t-15.5 353.5q118 -9 225 -9q68 0 135.5 3.5t144.5 9.5v-230q-62 11 -122.5 17t-120.5 6h-39q-10 -125 -13.5 -249t-5.5 -249q26 -2 52.5 -2h54.5h47t49 2v-200q-31 2 -63 3t-64 1q-18 0 -37.5 -1t-38.5 -1l-4 -357 q82 2 159.5 8t164.5 19v-209q-56 2 -108.5 3t-104.5 1q-78 0 -154 -2.5t-157 -7.5z" />
<glyph unicode="F" horiz-adv-x="586" d="M66 -8q9 186 14.5 368.5t5.5 368.5q0 178 -4.5 353.5t-15.5 353.5q118 -9 225 -9q68 0 135.5 3.5t144.5 9.5v-230q-62 11 -122.5 17t-120.5 6h-39q-8 -112 -10.5 -226t-2.5 -233v-39q25 -2 50 -2h51h47t49 2v-200q-31 2 -63 3t-64 1q-17 0 -35 -1t-35 -1l13 -545 q-23 3 -49.5 3.5t-51.5 0.5t-46.5 -0.5t-38.5 -1.5q-19 -1 -37 -2z" />
<glyph unicode="G" horiz-adv-x="670" d="M39 723q0 153 21.5 267t56 195.5t78 134t88.5 83t87.5 42t73.5 11.5q29 -1 57 -6q24 -5 50.5 -15t46.5 -28l-20 -201q-28 14 -52.5 20.5t-46.5 6.5q-42 0 -74.5 -22.5t-56 -59.5t-40 -84t-26.5 -96q-25 -115 -28 -262q3 -127 23 -233q9 -45 22.5 -90t33 -83.5t46 -66.5 t61.5 -39q-2 130 -12.5 258t-30.5 258l238 4q-5 -36 -10.5 -82t-9.5 -98.5t-6.5 -110t-2.5 -115.5q0 -13 1.5 -37.5t3.5 -54t4.5 -61t5 -59t4.5 -47.5t4 -27q-39 -18 -77 -27.5t-68 -14.5q-35 -5 -68 -6q-36 0 -77.5 13t-83.5 44.5t-81 86t-69 137t-48 197.5t-18 268z" />
<glyph unicode="H" horiz-adv-x="825" d="M66 1436h266q-10 -198 -17 -392.5t-10 -390.5q25 -2 50.5 -2h50.5q32 0 65.5 1t67.5 3q2 44 2 86.5v87.5q0 152 -3 303t-10 304h246q-18 -241 -27 -478.5t-10 -478.5q0 -118 3 -235t8 -236h-228q5 119 9 237l8 236q-57 3 -113.5 5.5t-112.5 2.5h-9v-206v-138t3 -137h-229 q5 144 6.5 284.5t1.5 282.5q0 430 -18 861z" />
<glyph unicode="I" horiz-adv-x="498" d="M33 1233l2 209q77 -5 154 -7.5t155 -2.5h56t57 2l-6 -199q-23 0 -45.5 1t-45.5 1q-14 -180 -20 -357.5t-6 -357.5q0 -157 6 -313q32 0 65.5 1t67.5 3l-10 -199q-40 2 -80 3t-80 1q-66 0 -132 -2.5t-132 -7.5l2 215q23 -3 46 -4.5t46 -3.5q6 155 11.5 308.5t5.5 307.5 q0 103 -3 203.5t-6 202.5q-26 0 -53 -1t-55 -3z" />
<glyph unicode="J" horiz-adv-x="584" d="M8 25l29 174q23 -13 46.5 -18t45.5 -5q58 0 95.5 17.5t59.5 63t30 123.5t8 200v35.5v38.5t-1 61.5t-3 105.5t-5 169t-8 253h-158v197l377 4q-6 -242 -9 -424.5t-5 -307.5q-2 -146 -2 -251q-2 -128 -30.5 -217.5t-71 -146t-93.5 -83t-96 -28.5q-5 0 -26 0.5t-51.5 4 t-65.5 11.5t-66 23z" />
<glyph unicode="K" horiz-adv-x="725" d="M66 16q6 204 10 407t4 408q0 153 -2.5 305.5t-5.5 307.5h231q-15 -190 -23.5 -376.5t-11.5 -373.5q71 187 133 374.5t121 379.5l219 -16q-85 -197 -162 -394t-145 -399q59 -159 128 -310.5t147 -299.5l-222 -25q-49 147 -104 288.5t-117 280.5v-124q0 -219 6 -435z" />
<glyph unicode="L" horiz-adv-x="604" d="M66 -8q9 186 14.5 368.5t5.5 368.5q0 178 -4.5 353.5t-15.5 353.5q10 -1 23 -1q11 -1 27 -1h36q32 0 69.5 1.5t75.5 4.5q-13 -144 -18.5 -303t-7 -321.5t-2 -324t-3.5 -311.5q82 2 159.5 8t164.5 19v-209q-56 2 -108.5 3t-104.5 1q-78 0 -154 -2.5t-157 -7.5z" />
<glyph unicode="M" horiz-adv-x="1067" d="M41 -12q15 85 24.5 191t15 222t7.5 236t2 233q0 116 -1.5 217t-3.5 177q-3 89 -5 163q32 -5 67 -8.5t69 -5.5t66 -3t58 -1h31.5t25.5 1q12 0 21 1q48 -332 81 -560t52 -347q11 76 21.5 156.5t19.5 159.5t16.5 154.5t13.5 142.5q14 158 25 306q22 -2 48 -4q23 -2 54.5 -3 t69.5 -1t82 1.5t92 6.5q-12 -374 -12 -647q0 -201 4.5 -346t9.5 -240q6 -112 15 -186l-236 -6q3 153 7 311q1 67 2.5 142t2.5 152t1.5 154t0.5 148v89.5t-2 80.5q-12 -74 -30.5 -190.5t-38.5 -257t-39.5 -297.5t-34.5 -312l-190 5q-24 156 -46.5 307t-43 287t-37.5 252 t-29 202v-348q0 -108 1 -217.5t2.5 -206.5t4.5 -174.5t8 -120.5z" />
<glyph unicode="N" horiz-adv-x="850" d="M66 1448l280 -6q51 -220 109 -447t123 -448q-7 226 -20.5 452.5t-29.5 444.5l263 -2q-13 -201 -20 -398.5t-7 -396.5q0 -155 4.5 -306t15.5 -304l-202 6q-40 130 -78.5 258.5t-76.5 255.5t-77.5 253t-81.5 251q3 -261 9.5 -520.5t23.5 -517.5l-231 2q12 319 12 641 q0 198 -4 392t-12 390z" />
<glyph unicode="O" d="M41 700q0 207 27.5 351.5t75.5 235t112 131t137 40.5t137 -39.5t111 -129.5t74.5 -234.5t27.5 -354.5q0 -201 -27.5 -341t-74.5 -227.5t-111 -127t-137 -39.5t-137 37.5t-112 123.5t-75.5 227t-27.5 347zM264 700q0 -154 10 -258.5t27.5 -168t41 -90.5t50.5 -27 q26 0 49 28.5t40.5 93t27.5 168.5t10 254q0 157 -10 265t-27.5 175.5t-40.5 97.5t-49 30q-27 0 -50.5 -30.5t-41 -98t-27.5 -176t-10 -263.5z" />
<glyph unicode="P" horiz-adv-x="680" d="M55 -8q16 227 23.5 454t7.5 457q0 133 -2 265.5t-8 267.5q53 16 107.5 21t92.5 5q27 0 66.5 -6t82 -23.5t85 -49t76.5 -84t55 -127.5t21 -179q0 -86 -22.5 -168.5t-69 -152.5t-117.5 -123.5t-168 -81.5q2 -121 5.5 -239.5t8.5 -235.5h-244zM285 637q33 12 57.5 32 t43 44.5t31 52.5t20.5 55q19 63 22 137q0 1 -0.5 23t-5 55.5t-14.5 74t-27.5 77.5t-45 66.5t-67.5 41.5q-8 -155 -11 -310.5t-3 -313.5v-35z" />
<glyph unicode="Q" d="M41 700q0 207 27.5 351.5t75.5 235t112 131t137 40.5t137 -39.5t111 -129.5t74.5 -234.5t27.5 -354.5q0 -134 -12.5 -240.5t-35 -188.5t-55 -139.5t-71.5 -94.5q32 -54 70.5 -104.5t81.5 -98.5l-193 -108q-14 63 -35 124t-49 121q-24 -6 -51 -6q-73 0 -137 37.5 t-112 123.5t-75.5 227t-27.5 347zM264 700q0 -154 10 -258.5t27.5 -168t41 -90.5t50.5 -27q26 0 49 28.5t40.5 93t27.5 168.5t10 254q0 157 -10 265t-27.5 175.5t-40.5 97.5t-49 30q-27 0 -50.5 -30.5t-41 -98t-27.5 -176t-10 -263.5z" />
<glyph unicode="R" horiz-adv-x="694" d="M55 -8q16 227 23.5 454t7.5 457q0 133 -2 265.5t-8 267.5q53 16 107.5 21t92.5 5q27 0 65.5 -5.5t80.5 -22.5t83.5 -48t74 -81.5t53 -123t20.5 -173.5q0 -67 -12.5 -134.5t-40.5 -130t-72 -117t-108 -96.5q56 -143 123.5 -274.5t150.5 -253.5l-250 -14l-170 483 q4 -122 10 -242t15 -237h-244zM272 633q35 10 61.5 29.5t46.5 44.5t33.5 53t22.5 56q20 65 23 142q0 2 -0.5 24.5t-5.5 56.5t-14.5 74t-27.5 77.5t-46 66.5t-68 41q-12 -157 -18.5 -312.5t-6.5 -313.5v-39z" />
<glyph unicode="S" horiz-adv-x="616" d="M23 1071q0 100 27.5 173t73.5 121t105.5 71.5t124.5 23.5q57 0 116.5 -15.5t119.5 -47.5l-19 -252q-26 33 -54.5 52.5t-55 29.5t-49 13t-37.5 3q-29 0 -53.5 -14.5t-42 -39t-27.5 -58t-10 -70.5q0 -57 24.5 -103t61.5 -91t79.5 -92.5t79.5 -107t61.5 -136t24.5 -177.5 q0 -79 -16.5 -138.5t-43 -102t-59.5 -70t-67.5 -43.5t-66 -22.5t-54.5 -6.5q-12 0 -33 1.5t-48 6.5t-59.5 14.5t-68.5 26.5l11 252q59 -50 105.5 -67t78.5 -17q62 0 93.5 45t31.5 117q0 48 -23.5 107.5t-83.5 128.5q-41 48 -85 100t-80 111t-59 127t-23 147z" />
<glyph unicode="T" horiz-adv-x="584" d="M16 1225l2 209q36 -3 81 -4.5t94.5 -2.5t101.5 -1.5t102 -0.5h94.5t79.5 2l-6 -200q-32 2 -73.5 3t-88.5 1q-7 -93 -11 -192.5t-7.5 -202t-4.5 -206t-1 -204.5q0 -115 1.5 -222.5t6.5 -207.5h-213q9 170 14 362t5 387q0 127 -3 248t-6 236q-48 0 -91 -1t-77 -3z" />
<glyph unicode="U" horiz-adv-x="741" d="M45 545q0 208 17 421.5t40 442.5l209 -4q-18 -215 -33.5 -434t-15.5 -451q0 -67 4 -127t14 -105.5t25.5 -72.5t38.5 -27q27 0 49.5 42.5t38 112t24.5 158.5t9 181q0 88 -1.5 177t-4.5 180.5t-8 187t-13 198.5l199 23q23 -204 32 -412.5t9 -435.5q0 -77 -6.5 -152.5 t-22 -144t-41 -127t-63.5 -101t-90 -67t-119 -24.5q-60 0 -105 22.5t-77 62t-53.5 93t-33.5 116t-17 130.5t-5 137z" />
<glyph unicode="V" horiz-adv-x="719" d="M8 1419l250 4q16 -300 42 -593t58 -588q39 298 69 594.5t48 595.5l248 -17q-72 -357 -125.5 -709.5t-91.5 -709.5l-301 -4q-35 360 -85 715t-112 712z" />
<glyph unicode="W" horiz-adv-x="1065" d="M37 1395l252 6q-1 -62 -1 -135q-1 -63 -1 -144.5v-173.5v-148t0.5 -147.5t1 -139.5t2.5 -122l137 871h231l109 -830q2 74 4.5 156.5t4.5 166.5t3.5 166t3.5 157q4 175 7 349l256 -26l-140 -1440h-264q-3 88 -6.5 165.5t-9.5 148.5t-13.5 139t-17 139t-21.5 147.5 t-26 163.5q-19 -112 -53 -335.5t-82 -557.5l-277 -14z" />
<glyph unicode="X" horiz-adv-x="711" d="M4 16q68 171 128.5 340.5t117.5 345.5q-57 178 -117.5 352t-126.5 351l232 31q26 -107 52.5 -211t55.5 -207q31 103 60.5 206t58.5 210l248 -19q-79 -177 -144.5 -357t-122.5 -366q56 -174 120.5 -341t140.5 -333l-238 -24l-117 379q-26 -96 -49.5 -192t-46.5 -193z" />
<glyph unicode="Y" horiz-adv-x="713" d="M8 1415l250 21q4 -82 13.5 -173.5t22.5 -186.5t29 -192t33 -190q19 95 37.5 193.5t34.5 194.5t29.5 187t23.5 171l246 -6q-80 -254 -149.5 -512.5t-131.5 -499.5v-62q0 -50 1.5 -94.5t3.5 -88t5.5 -89t8.5 -96.5h-240q8 62 14 115.5t9.5 105.5t5.5 107t2 120 q-28 115 -58.5 239t-62.5 249t-64 248.5t-63 238.5z" />
<glyph unicode="Z" horiz-adv-x="600" d="M-2 16q103 297 190 601t150 624q-69 -3 -138.5 -10t-142.5 -17l-6 220q62 -3 123 -5t123 -2q148 0 295 9q-90 -305 -166.5 -607t-130.5 -608q12 -2 24.5 -1t26.5 1q54 0 106.5 2.5t106.5 7.5l4 -233q-105 11 -209 15.5t-213 4.5h-71.5t-71.5 -2z" />
<glyph unicode="[" horiz-adv-x="500" d="M72 -166q7 106 11 228t6.5 246.5t3.5 246t1 227.5q0 98 -0.5 204t-3 213.5t-7 213t-11.5 203.5q24 1 53.5 2.5t62 2.5t66 2.5t65.5 2.5q74 3 152 6l4 -205q-34 2 -71.5 2.5t-90.5 0.5q-4 -67 -6 -149.5t-3.5 -168.5t-2 -169t-0.5 -150q0 -52 0.5 -115.5t1 -133t1.5 -142 t2.5 -142.5t3 -134t3.5 -116l162 4v-188q-112 0 -209.5 1.5t-193.5 6.5z" />
<glyph unicode="\" horiz-adv-x="852" d="M23 1468l217 19q115 -324 225 -615q47 -124 97 -253.5t98.5 -248.5t93 -221t80.5 -172h-23q-36 0 -75 -3t-71 -7q-38 -4 -73 -10q-23 82 -59.5 191t-81 230.5t-93 249.5t-96.5 249q-112 284 -239 591z" />
<glyph unicode="]" horiz-adv-x="500" d="M25 31q34 -2 71.5 -2h89.5q4 67 6.5 149.5t4 168t2 168.5t0.5 151q0 51 -0.5 114.5t-1 133t-1.5 142t-2.5 142.5t-3.5 134t-4 116l-161 -4v188q112 0 209.5 -1.5t193.5 -6.5q-7 -106 -11 -228t-6.5 -246.5t-3.5 -246t-1 -227.5q0 -98 0.5 -204t3 -213.5t6.5 -213.5 t12 -203q-24 -1 -54 -2.5t-62 -2.5t-66 -2.5t-65 -2.5q-74 -3 -152 -6z" />
<glyph unicode="^" horiz-adv-x="496" d="M0 928l154 524q20 -2 39.5 -3t39.5 -1t36.5 0.5t29.5 1.5q15 1 27 2l170 -520l-185 -23q-21 100 -37 180q-7 34 -13.5 67.5t-11.5 60.5t-8 45t-3 22l-66 -381z" />
<glyph unicode="_" horiz-adv-x="631" d="M74 -92q54 -9 126.5 -14t143.5 -5t129.5 5t87.5 14q-2 -5 -3 -33t-1 -63q0 -36 1 -68.5t3 -46.5q-83 5 -180 8.5t-197 3.5q-28 0 -55 -1t-55 -1q0 25 1 54t1 61v41.5t-2 44.5z" />
<glyph unicode="`" horiz-adv-x="358" d="M0 1470q27 23 55 45q24 19 52.5 40.5t54.5 39.5l196 -340l-94 -69z" />
<glyph unicode="a" horiz-adv-x="711" d="M23 252q0 57 24.5 112.5t83.5 100.5q79 61 137 102t96.5 74.5t57 64t18.5 70.5q0 66 -22 98.5t-58 32.5q-22 0 -37.5 -11.5t-25 -30t-14 -41t-4.5 -44.5q0 -15 1.5 -33t6.5 -38l-230 -4q-2 17 -3 32.5t-1 30.5q0 62 21 122.5t61.5 108t98.5 76.5t133 29q97 0 153.5 -40.5 t86 -106.5t38 -149.5t8.5 -170.5q0 -158 -1.5 -316t-6.5 -329l-174 10v135q-30 -54 -68 -82.5t-72 -42.5q-40 -16 -79 -18q-48 0 -90 21.5t-73 57.5t-48.5 82.5t-17.5 96.5zM215 268q0 -28 19 -51.5t47 -23.5q21 0 43.5 12t43 34t36.5 51t24 64q5 25 9 57q4 27 7 65.5 t5 86.5q-16 -22 -31 -39t-28 -30q-15 -15 -28 -27q-23 -19 -49 -42.5t-47.5 -49.5t-36 -53.5t-14.5 -53.5z" />
<glyph unicode="b" horiz-adv-x="733" d="M66 -12v1419h249l-22 -401q25 38 52.5 57.5t50.5 29.5q27 11 53 13q60 0 102.5 -33t71 -86.5t44.5 -120t23 -132.5q8 -68 8 -128q0 -9 1 -16q0 -49 -3 -84q-10 -150 -38.5 -252t-68 -164.5t-87.5 -89.5t-96 -27q-21 3 -44 16q-20 11 -45.5 33t-52.5 60v-94h-198zM258 457 q0 -59 5.5 -110.5t18 -90.5t32 -61.5t46.5 -22.5q32 0 55 30t37.5 77.5t21.5 106.5t9 118q1 30 1 70v26q0 27 -1 55q-1 42 -6 82.5t-15.5 72.5t-29 51.5t-47.5 19.5q-32 0 -54 -24.5t-36 -63t-21.5 -86.5t-11 -95t-4 -88.5t-0.5 -66.5z" />
<glyph unicode="c" horiz-adv-x="547" d="M37 522q0 52 2.5 115.5t12 128t29 125.5t53.5 108.5t85.5 76t124.5 28.5q32 0 62 -5t55 -12.5t43 -16t26 -15.5l-16 -234q-14 18 -34 28t-40 15t-37 6.5t-24 1.5q-30 0 -53.5 -26t-40 -74t-25 -116.5t-8.5 -153.5q0 -82 11.5 -149.5t40.5 -116t78 -77.5t124 -34l-6 -172 q-17 -2 -33.5 -3t-32.5 -1q-86 0 -148.5 21.5t-106.5 60.5t-71.5 92.5t-43.5 117t-21.5 135t-5.5 146.5z" />
<glyph unicode="d" horiz-adv-x="735" d="M35 578q0 131 21.5 230.5t57.5 166.5t83 101t98 34q27 -2 54 -14q23 -11 51 -33t53 -62l-13 414l242 10l-25 -1437h-192v102q-29 -43 -56 -66.5t-48 -34.5q-25 -13 -46 -16q-51 0 -101 30.5t-89.5 101.5t-64.5 186.5t-25 286.5zM250 551q0 -39 1.5 -82t5.5 -85.5 t12 -80.5t20 -67.5t29.5 -46.5t41.5 -17q30 0 51 24.5t34.5 66.5t19.5 98.5t6 121.5q-2 68 -4.5 139t-13.5 129.5t-33.5 96t-63.5 37.5q-38 0 -59.5 -31t-32 -80t-12.5 -108t-2 -115z" />
<glyph unicode="e" horiz-adv-x="664" d="M33 496q0 132 21 243.5t61 192.5t99 126.5t134 45.5q62 0 113 -31t87 -95t55.5 -162.5t19.5 -233.5q0 -38 -1.5 -77t-5.5 -81l-354 -47q4 -37 12.5 -70t23 -58.5t34.5 -40.5t49 -15q54 0 108 6.5t113 15.5l27 -188q-93 -32 -169.5 -42t-125.5 -10q-61 0 -107 24t-79.5 64 t-55.5 92.5t-35 110.5t-18.5 117.5t-5.5 112.5zM256 547l166 31v38q0 85 -13 131.5t-28 68.5q-18 26 -41 30q-29 -3 -46 -27t-25.5 -61.5t-10.5 -84.5t-2 -95v-31z" />
<glyph unicode="f" horiz-adv-x="485" d="M16 868v174h93q1 59 3 90q1 17 1 29q0 84 19 151.5t55 115.5t86.5 74t113.5 26q42 0 87.5 -11.5t94.5 -37.5l-24 -215q-22 18 -42.5 25t-37.5 7q-35 0 -59 -21t-40.5 -56.5t-26 -81.5t-13.5 -95h157v-186l-166 4v-76q-2 -125 -3 -258q-1 -57 -1.5 -121.5t-1 -132 t-0.5 -137.5v-137l-194 -6q-6 256 -8.5 447.5t-2.5 328.5v98z" />
<glyph unicode="g" horiz-adv-x="750" d="M35 569q0 132 21.5 232t57.5 168t83 102.5t98 34.5q24 0 51.5 -8t55.5 -28.5t53.5 -55t44.5 -88.5l-2 123l178 -9l14 -772q-4 -118 -8 -208.5t-16 -158.5t-36 -114t-66.5 -74t-108 -40.5t-160.5 -12.5q-47 0 -101 3.5t-116 14.5l8 220q74 -5 130.5 -8t94.5 -5 q45 -3 78 -4q48 0 72.5 56t27.5 155q-18 -40 -40.5 -65t-46 -39.5t-46 -19.5t-41.5 -5q-51 0 -101 31t-89.5 102.5t-64.5 187t-25 285.5zM250 541q0 -39 1.5 -82t5.5 -85.5t12 -80.5t20 -67.5t29.5 -46.5t41.5 -17q30 0 51 24.5t34.5 66.5t19.5 98.5t6 121.5q0 31 -0.5 73.5 t-3 88t-9.5 89.5t-19.5 79t-32.5 56.5t-50 21.5q-38 0 -59.5 -32t-32 -82t-12.5 -110t-2 -116z" />
<glyph unicode="h" horiz-adv-x="772" d="M61 43q5 183 7 362.5t2 362.5q0 164 -1.5 325.5t-5.5 325.5l252 6q-6 -67 -11 -125.5t-8.5 -114t-5.5 -110t-3 -112.5q31 51 68.5 79t72 42t60.5 17t34 3q60 0 99 -40t61.5 -107t31.5 -155t9 -184q0 -78 -4.5 -159t-10.5 -159t-12 -150t-10 -132l-221 -12q7 50 12 103 t9 106t7 104t5 97q4 107 6 211q0 86 -7 136.5t-18.5 77t-26.5 34.5t-30 8q-20 0 -38 -6.5t-33.5 -26.5t-28 -56.5t-21.5 -96.5t-13.5 -146.5t-4.5 -206.5v-92t0.5 -90.5t1 -75t2.5 -45.5z" />
<glyph unicode="i" horiz-adv-x="358" d="M43 1329q0 30 9 56.5t28.5 46.5t50.5 31.5t74 11.5t73.5 -11.5t50 -31.5t29 -46.5t9.5 -56.5q0 -31 -10 -57.5t-30 -46t-50.5 -30.5t-71.5 -11q-45 0 -75.5 11t-50 30.5t-28 46t-8.5 57.5zM47 35q17 180 23 329.5t6 268.5q0 102 -3.5 178.5t-7.5 129.5q-4 62 -10 106 q56 -7 102.5 -9t80.5 -2h29t22 1q11 0 18 1q-6 -55 -10 -118t-7 -130.5t-4 -137t-1 -136.5q0 -78 1.5 -150.5t3.5 -133.5t6 -108t9 -73q-40 0 -83 -2q-37 -2 -83 -5t-92 -9z" />
<glyph unicode="j" horiz-adv-x="344" d="M-205 -301l8 199q22 -5 48 -9q22 -3 51 -5.5t61 -2.5q67 0 92 89.5t25 271.5q0 60 -1.5 129t-4.5 140.5t-6.5 143t-6.5 137.5q-8 154 -18 310h225q4 -177 8 -337q1 -68 3 -139.5t3 -137.5t2 -123t1 -97q0 -134 -9 -238.5t-32.5 -178.5t-65.5 -117.5t-108 -55.5 q-29 -6 -55.5 -8t-49.5 -2q-39 0 -70.5 4.5t-53.5 10.5q-26 7 -46 16zM-16 1325q0 30 9 56.5t28.5 46t50 31t73.5 11.5t74 -11.5t50.5 -31t28.5 -46t9 -56.5t-9.5 -56.5t-29.5 -46t-50.5 -31t-72.5 -11.5q-44 0 -75 11.5t-50 31t-27.5 46t-8.5 56.5z" />
<glyph unicode="k" horiz-adv-x="643" d="M35 1419q123 -6 190 -6h28.5t21.5 1q11 0 18 1q-8 -174 -13 -309.5t-8 -236.5t-4.5 -169t-1.5 -108q40 111 78 226.5t72 248.5l231 -35q-55 -139 -96 -238t-70.5 -167t-48.5 -109t-31 -63q26 -57 82 -169t150 -282l-240 -16l-149 358q0 -44 0.5 -100t1.5 -109.5t3 -97.5 t5 -64h-57q-26 0 -63.5 -0.5t-82.5 -3.5q8 112 13 219t7 192q3 99 3 187q-1 98 -5 226q-4 110 -12 267t-22 357z" />
<glyph unicode="l" horiz-adv-x="356" d="M27 1415l260 12v-406.5t0.5 -321t1 -245t0.5 -179.5q1 -175 2 -248q-26 -1 -59 -4q-28 -2 -65.5 -5t-82.5 -8q-9 339 -19 599.5t-18 440.5q-10 210 -20 365z" />
<glyph unicode="m" horiz-adv-x="1108" d="M47 1036q64 2 105 5t65 7q28 4 43 9l2 -121q21 34 46.5 64t53.5 51.5t58.5 34t62.5 12.5q36 0 63.5 -5.5t48 -21t34.5 -43t24 -70.5q18 28 39.5 53.5t47 45t54.5 30.5t64 11q55 0 93 -13t61.5 -52.5t34 -112t11.5 -191.5q0 -171 -8.5 -342.5t-17.5 -353.5l-219 -21 q12 184 16.5 309.5t5.5 202.5q0 38 0.5 66t-0.5 46q-1 34 -1 38q0 55 -5.5 90t-15 54.5t-22 26.5t-27.5 7q-9 0 -20 -1.5t-23 -10t-23.5 -26.5t-21.5 -50q3 -45 3.5 -80t0.5 -49q-4 -120 -8 -232q-2 -48 -4 -99t-4.5 -99.5t-4.5 -93t-4 -78.5l-219 -21q8 132 13 231.5 t7.5 171t3.5 119.5q1 32 1 56q-1 12 -1 21q0 29 -0.5 43t-0.5 18q0 56 -4.5 91t-12.5 55t-19.5 27t-25.5 7q-18 0 -36.5 -6.5t-33 -26t-23.5 -55.5t-8 -96v-222.5t2 -195.5q1 -101 3 -193l-238 -22q8 106 10.5 207t2.5 182q0 152 -6.5 301.5t-22.5 310.5z" />
<glyph unicode="n" d="M61 43q3 91 4.5 162.5t2.5 131.5t1.5 112.5t0.5 103.5q0 46 -0.5 94.5t-1 104.5t-2 122.5t-3.5 147.5l234 6l-4 -102q27 51 58 81.5t61.5 47.5t59.5 22.5t52 5.5q62 0 102 -43t63.5 -114.5t32.5 -163.5t9 -191q0 -72 -3.5 -146t-8 -145.5t-10 -138t-9.5 -123.5l-235 -12 q22 161 31.5 326t9.5 346q0 61 -8 97.5t-21 56t-28 25t-29 5.5q-20 0 -37.5 -7t-32.5 -27t-27.5 -56t-21.5 -95t-13.5 -143.5t-4.5 -201.5v-87.5t0.5 -86.5t1 -72.5t2.5 -44.5z" />
<glyph unicode="o" horiz-adv-x="684" d="M37 541q0 180 26.5 295t69.5 181.5t98 92t113 25.5q37 0 74.5 -7.5t71 -29.5t62.5 -61t50 -101.5t33 -151.5t12 -211t-11 -214t-31.5 -159.5t-49 -112t-63 -71.5t-74.5 -38t-82 -11t-80.5 9t-71.5 33t-60.5 65t-46.5 105t-29.5 153t-10.5 209zM248 526q0 -98 7.5 -162.5 t21 -103t32 -54.5t39.5 -16q44 0 64 91t20 284q0 96 -7 157.5t-19 97.5t-29 49.5t-37 13.5q-23 0 -40 -19.5t-28.5 -62.5t-17.5 -110.5t-6 -164.5z" />
<glyph unicode="p" horiz-adv-x="735" d="M68 -336v1366l192 14v-55q12 23 27.5 44.5t33.5 37.5t39 25.5t46 9.5q65 0 112.5 -33t80 -86.5t52 -122.5t30 -141.5t14 -141.5t3.5 -124q0 -125 -20 -216.5t-54.5 -151.5t-79.5 -89t-95 -29q-30 3 -61 14q-26 10 -56.5 30.5t-57.5 58.5l19 -410h-225zM258 602 q0 -28 0.5 -68.5t3.5 -85.5t10.5 -90t21 -80.5t35 -58t52.5 -22.5q34 0 54.5 22t31 58.5t13.5 83.5t3 96q0 34 -1.5 80.5t-5.5 96.5t-12 99t-21.5 87.5t-33 62.5t-47.5 24q-27 0 -47 -24.5t-32.5 -66.5t-18.5 -97.5t-6 -116.5z" />
<glyph unicode="q" horiz-adv-x="735" d="M35 498q0 166 24 281.5t63 187t88 103.5t99 32q34 0 61 -10.5t48 -29.5t37 -44t28 -55v98l176 -2l25 -1409l-221 10l8 426q-27 -40 -58 -61.5t-57 -31.5q-31 -11 -61 -13q-51 0 -98 31.5t-83 96t-57.5 161.5t-21.5 229zM250 571q0 -56 1 -120t10 -119t30.5 -91t62.5 -36 q28 0 47 15.5t31.5 42t20 61t11 72t5 75.5t2.5 72v46.5t-3 72.5t-9 82.5t-18.5 78t-31.5 58t-47 22.5q-31 0 -52.5 -30t-34.5 -78t-19 -107t-6 -117z" />
<glyph unicode="r" horiz-adv-x="676" d="M51 1034l197 13l10 -113q26 64 61.5 101.5t71 56t65 23.5t44.5 5q51 0 83 -32.5t50 -83.5t24.5 -112t6.5 -118q0 -45 -2.5 -85.5t-3.5 -72.5q-32 -5 -68 -12q-30 -6 -68 -16t-76 -23q10 50 13.5 87.5t3.5 68.5q0 54 -9.5 84.5t-21.5 45.5t-23.5 18t-15.5 3 q-32 0 -52 -26.5t-31 -70t-15 -99.5t-3 -115q0 -42 0.5 -84t2.5 -84l14 -393l-231 -16q0 241 -4.5 434.5t-9.5 330.5q-6 160 -13 285z" />
<glyph unicode="s" horiz-adv-x="563" d="M37 827q0 71 19.5 129.5t55 100.5t85 65t108.5 23q48 0 104 -14.5t119 -45.5l-16 -233q-26 23 -55 37.5t-54 22.5q-29 9 -57 12q-38 -7 -65 -39.5t-27 -83.5q0 -48 19.5 -83.5t49 -67t64.5 -63t65.5 -71.5t52 -92t23.5 -125q0 -89 -29.5 -148.5t-74 -95.5t-97.5 -51.5 t-100 -15.5q-35 1 -68 8q-29 6 -61.5 18.5t-58.5 36.5l8 228q36 -29 73 -45t68 -24q36 -9 70 -11q28 15 43.5 42.5t15.5 61.5q0 29 -13.5 61.5t-41.5 61.5q-28 28 -66.5 67.5t-74 89.5t-60 111t-24.5 133z" />
<glyph unicode="t" horiz-adv-x="537" d="M8 836l8 219q35 -5 72 -8t72 -5q0 78 -1.5 153t-4.5 153l256 2q-8 -81 -14 -157.5t-11 -152.5q38 2 75.5 3.5t76.5 5.5l-7 -203q-38 2 -77.5 2h-77.5q-8 -144 -11.5 -281.5t-3.5 -277.5q0 -72 1.5 -144.5t3.5 -146.5l-220 -4q7 215 12 425.5t5 424.5q-38 -2 -77 -3.5 t-77 -4.5z" />
<glyph unicode="u" horiz-adv-x="743" d="M43 446q0 76 6 155t15 155.5t20 148t22 133.5l218 -4q-9 -59 -18.5 -128t-17 -141t-12 -144.5t-4.5 -137.5q0 -60 5 -112t16 -90.5t28.5 -60t43.5 -21.5q34 0 56 41t34.5 107.5t17 149.5t4.5 167q0 63 -2 120t-4 102q-3 52 -6 97l225 4q-8 -161 -11 -318.5t-3 -316.5 q0 -94 0.5 -186t3.5 -186l-199 -5v125q-30 -49 -67 -75t-70.5 -37.5t-57.5 -13t-28 -1.5q-63 13 -104.5 55.5t-66 106t-34.5 143.5t-10 168z" />
<glyph unicode="v" horiz-adv-x="647" d="M8 1028l240 2q4 -87 14 -176.5t22.5 -180.5t25.5 -182.5t24 -181.5q12 90 22 183t19 186t18 185t19 179l237 -8q-34 -131 -62.5 -259.5t-54 -257t-49.5 -257.5t-49 -262l-229 -2q-16 132 -40 261t-51 256.5t-55 255.5t-51 259z" />
<glyph unicode="w" horiz-adv-x="977" d="M12 1028l240 2q9 -117 20 -239q4 -52 9 -110.5t10.5 -119.5t10 -123t9.5 -121q8 51 16.5 102.5t16 101t14 96t12.5 87.5q13 96 25 183h178q20 -88 38 -185q16 -83 34 -185.5t33 -205.5q7 59 13 122t11.5 125.5t10 122.5t8.5 114q9 126 16 247l238 -8q-38 -196 -73 -385 q-15 -81 -31.5 -167.5t-32.5 -172t-31 -165.5t-27 -146l-229 -2q-9 73 -18.5 144t-18 137t-16.5 125t-15 108q-11 -97 -29.5 -230.5t-45.5 -281.5l-230 -2q-8 66 -19.5 145.5t-24.5 164.5t-27.5 171.5t-27.5 166.5q-32 188 -67 384z" />
<glyph unicode="x" horiz-adv-x="647" d="M4 8q60 128 116.5 253t108.5 255q-54 128 -109.5 252.5t-111.5 251.5l234 24q36 -137 86 -268q21 65 43.5 131t42.5 137l231 -18q-60 -127 -114 -251t-107 -251q51 -127 103.5 -248t105.5 -245l-201 -39q-25 74 -50.5 144.5t-53.5 142.5q-26 -70 -51 -140.5t-48 -142.5z " />
<glyph unicode="y" horiz-adv-x="745" d="M45 481.5q0 -0.5 1 10t3 39.5t6 91t9.5 163.5t13.5 258.5l231 -20q3 0 -3.5 -38.5t-15 -109t-16.5 -169.5t-8 -220q0 -72 7.5 -122.5t20.5 -82.5t31.5 -46.5t41.5 -14.5q40 0 66 62.5t26 199.5q0 9 -0.5 20.5t-1 34t-2.5 58.5t-5.5 95.5t-8 145t-11.5 205.5l236 -6 q9 -216 14.5 -434.5t5.5 -445.5q0 -144 -12 -241t-48 -156.5t-103 -85t-177 -25.5q-56 0 -129 5t-166 17l8 219q73 -5 130 -8l95 -5q45 -3 78 -3q24 0 41 5.5t27.5 20t15.5 40.5t5 67v26.5t-2 30.5q-16 -24 -36.5 -38t-40.5 -22t-38.5 -10.5t-30.5 -2.5q-81 0 -131 33 t-77.5 90t-37.5 133.5t-10 163.5q0 39 -0.5 52.5t-1 16.5t-0.5 2.5z" />
<glyph unicode="z" horiz-adv-x="578" d="M14 -16l285 882l-262 -10l-6 201h530l-276 -860l260 6v-211z" />
<glyph unicode="{" horiz-adv-x="528" d="M18 567v215q34 0 60.5 12.5t44.5 34t27.5 49.5t9.5 60q0 31 -8 75t-17.5 92t-17.5 97.5t-8 93.5q0 78 20 141t60 107.5t101 68t142 23.5q16 0 32 -1t32 -3l24 -213q-23 13 -49.5 15t-54.5 2q-25 0 -46.5 -10t-37 -27.5t-24.5 -40.5t-9 -49q0 -19 5.5 -51.5t14 -71.5 t18.5 -81.5t18.5 -82.5t14 -73.5t5.5 -53.5q0 -38 -12.5 -72t-35 -61t-54 -45.5t-68.5 -26.5q38 -8 68 -30t50.5 -52.5t31 -66.5t10.5 -72q0 -19 -4.5 -50.5t-11 -69t-14.5 -79t-14.5 -79t-11 -68.5t-4.5 -49q0 -59 34.5 -90t100.5 -31q11 0 22.5 0.5t20.5 1.5q11 1 19 2 l-39 -231q-68 10 -132 33t-114 62t-80.5 96.5t-30.5 137.5q0 37 11 85t24 98t24 97.5t11 84.5q0 31 -10 58t-28.5 47t-45 31t-59.5 11h-15z" />
<glyph unicode="|" horiz-adv-x="395" d="M70 -170q3 16 5.5 63.5t4.5 115t4 149t4 165.5t3.5 164.5t2.5 146.5t1.5 110.5t0.5 56.5q0 201 -4 406t-22 395q29 -2 54 -3.5t50 -1.5q38 0 76 1.5t80 3.5q-11 -86 -18 -179.5t-10.5 -188t-5 -188.5t-1.5 -182q0 -113 2 -245.5t7 -268.5t12.5 -268t19.5 -244h-70 q-51 0 -96.5 -1.5t-99.5 -6.5z" />
<glyph unicode="}" horiz-adv-x="526" d="M8 1419l25 213q15 2 31.5 3t31.5 1q81 0 142 -23.5t101.5 -68t60.5 -107.5t20 -141q0 -44 -8 -93.5t-17.5 -97.5t-17.5 -92t-8 -75q0 -32 9.5 -60t27.5 -49.5t44 -34t60 -12.5v-215h-16q-32 0 -58.5 -11t-45 -31t-28.5 -47t-10 -58q0 -37 11 -84.5t24 -97.5t24 -98 t11 -85q0 -80 -30.5 -137.5t-80 -96.5t-114 -62t-131.5 -33l-39 231q9 -1 19 -2q8 -1 18.5 -1.5t21.5 -0.5q68 0 102.5 31t34.5 90q0 18 -4.5 49t-11 68.5t-14 79t-14 79t-11 69t-4.5 50.5q0 36 10.5 72t31 66.5t50 52.5t68.5 30q-38 8 -69 26.5t-53.5 45.5t-35 61t-12.5 72 q0 20 5.5 53.5t14 73.5t18 82.5t18 81.5t14 71.5t5.5 51.5q0 26 -9 49t-24.5 40.5t-37 27.5t-45.5 10q-28 0 -55 -2t-50 -15z" />
<glyph unicode="~" horiz-adv-x="766" d="M41 674q18 45 36 84t41 67t53.5 44t72.5 16q45 0 81 -17.5t65.5 -39t55 -39t50.5 -17.5q31 0 55.5 20.5t42.5 46.5q20 30 37 68l94 -153q0 -1 -6.5 -16t-19.5 -37t-31.5 -48t-43 -48t-54 -37t-64.5 -15q-33 0 -59 18.5t-50.5 40t-49.5 40t-56 18.5q-40 0 -75 -31t-64 -88 z" />
<glyph unicode="&#xa1;" horiz-adv-x="342" d="M45 -338q28 277 44 559t20 555l133 4q6 -275 17.5 -558t27.5 -558zM63 1028q0 24 9.5 45t25.5 36.5t37 24.5t45 9t45 -9t36.5 -24.5t24.5 -36.5t9 -45t-9 -44.5t-24.5 -36.5t-36.5 -25t-45 -9t-45 9t-37 25t-25.5 36.5t-9.5 44.5z" />
<glyph unicode="&#xa2;" horiz-adv-x="457" d="M31 369q0 81 12 160t35 141q13 35 34 59t46 38t53 20.5t55 7.5l47 321h88l-63 -328q32 -6 56.5 -14t33.5 -16l-12 -172q-12 14 -29.5 22t-34.5 11.5t-31 4.5t-18 1q-24 0 -42.5 -19.5t-31 -55.5t-19.5 -86.5t-7 -111.5t9.5 -110t33 -85t63 -56.5t99.5 -24.5l-5 -127 q-14 -2 -26 -2h-25q-51 0 -90.5 9.5t-68.5 23.5l-43 -310h-89l66 348q-10 7 -16 15q-4 4 -5 6q-19 23 -33 58t-23.5 78t-14 92.5t-4.5 101.5z" />
<glyph unicode="&#xa3;" horiz-adv-x="678" d="M45 197q42 38 68.5 85t40.5 95t19 92.5t5 79.5h-123l-6 168l111 2q-11 54 -24.5 107.5t-25.5 106t-20 103.5t-8 99q0 67 22.5 127t64.5 104t102 70t135 26q49 0 105.5 -14t121.5 -49l-31 -193q-32 32 -69.5 44t-69.5 12q-50 0 -82 -13.5t-51 -39.5t-26 -64t-7 -86 q0 -66 11 -150t30 -184l162 6v-182h-148v-8q0 -43 -3.5 -90.5t-13.5 -95.5t-27 -94t-44 -85l379 21v-199h-596z" />
<glyph unicode="&#xa4;" horiz-adv-x="672" d="M72 571q20 16 40 31.5t40 32.5q-5 12 -7 25.5t-2 27.5q0 32 11 62q-20 18 -41 34t-41 33l141 141l66 -88q28 11 57 11q15 0 31.5 -3t31.5 -10l34 40t36 40l131 -129q-22 -17 -42 -34.5t-40 -34.5q5 -16 7.5 -31t2.5 -31q0 -35 -12 -65q17 -17 36 -32.5t38 -29.5 l-129 -131q-16 20 -32.5 40t-33.5 40q-14 -5 -29 -7.5t-30 -2.5q-16 0 -29.5 1.5t-27.5 6.5q-17 -19 -34 -38.5t-32 -39.5zM262 688q0 -28 22 -49t50 -21q31 0 52.5 21t21.5 49q0 31 -21.5 51.5t-52.5 20.5q-28 0 -50 -20.5t-22 -51.5z" />
<glyph unicode="&#xa5;" horiz-adv-x="774" d="M29 1415l250 21q4 -82 13.5 -173.5t22.5 -186.5t29 -192t33 -190q19 95 37 193.5t34.5 194.5t30 187t23.5 171l246 -6q-62 -196 -118 -395t-106 -394l129 4l-6 -157l-164 -3l-16 -67v-4l186 6l-6 -158l-180 -2q2 -68 6 -131.5t12 -140.5h-239q9 77 15 140.5t11 129.5 h-170l-8 146l182 4v28l-12 47h-162l-8 146l135 4q-48 195 -99.5 394.5t-100.5 383.5z" />
<glyph unicode="&#xa6;" horiz-adv-x="399" d="M72 1602h247l-20 -754h-203zM84 -170l16 821h205l21 -813z" />
<glyph unicode="&#xa7;" horiz-adv-x="641" d="M37 825q0 82 21.5 148.5t56.5 116.5q-34 58 -56 124t-22 144q0 100 27.5 173t74 121t106 71.5t124.5 23.5q57 0 116 -16t119 -48l-18 -251q-26 33 -54.5 52.5t-55.5 29.5t-49.5 13t-37.5 3q-29 0 -53.5 -14.5t-42 -39t-27.5 -58t-10 -70.5q0 -57 24.5 -103.5t61.5 -91 t80 -92t80 -107t61.5 -136t24.5 -177.5q0 -87 -19.5 -148t-48.5 -104q29 -56 48.5 -124t19.5 -156q0 -80 -16.5 -139t-43 -101.5t-59.5 -70t-67.5 -43.5t-66 -22.5t-54.5 -6.5q-12 0 -33 1.5t-48 6.5t-59.5 14.5t-68.5 26.5l10 252q60 -51 106 -67.5t78 -16.5 q62 0 93.5 44.5t31.5 116.5q0 48 -23 107.5t-83 128.5q-42 48 -86 100t-80 111t-59 127t-23 147zM256 813q0 -35 10.5 -66.5t27.5 -60.5t40 -57t49 -56q3 14 5.5 29.5t2.5 34.5q0 48 -23 107t-83 128l-19 19q-5 -19 -7.5 -38.5t-2.5 -39.5z" />
<glyph unicode="&#xa8;" horiz-adv-x="483" d="M0 1294q0 22 8.5 42t23 34t34 22.5t40.5 8.5q22 0 41.5 -8.5t34 -22.5t23 -34t8.5 -42q0 -21 -8.5 -40t-23 -33.5t-34 -22.5t-41.5 -8q-21 0 -40.5 8t-34 22.5t-23 33.5t-8.5 40zM270 1294q0 22 8.5 42t23 34t34 22.5t41.5 8.5q21 0 40.5 -8.5t34 -22.5t23 -34t8.5 -42 q0 -21 -8.5 -40t-23 -33.5t-34 -22.5t-40.5 -8q-22 0 -41.5 8t-34 22.5t-23 33.5t-8.5 40z" />
<glyph unicode="&#xa9;" horiz-adv-x="788" d="M53 692q0 103 13.5 180.5t37.5 134t57 93t71 58.5t79.5 31t83.5 9t83.5 -6.5t79.5 -25t70 -51.5t56 -86t37.5 -129t13.5 -179q0 -156 -27.5 -256t-75 -157t-110.5 -79t-135 -22q-69 0 -130 18.5t-106 71.5t-71.5 147.5t-26.5 247.5zM164 696q0 -128 18 -208t49 -124.5 t72.5 -60.5t89.5 -16t91.5 19t76 67.5t51.5 132t19 213.5q0 87 -9 150.5t-25.5 108t-38.5 72.5t-48 43.5t-54 21t-57 5.5q-44 0 -86 -18t-75 -65t-53.5 -129.5t-20.5 -211.5zM221 717q0 69 11.5 120.5t30.5 88t42.5 60t48 37t47 19t39.5 5.5q16 0 31 -3q13 -2 27 -7t24 -13 l-10 -90q-30 12 -53 12t-40.5 -10t-30 -26.5t-21 -38t-14.5 -43.5q-13 -52 -15 -117q2 -66 16 -117q6 -22 15 -43t22 -37.5t30.5 -26.5t41.5 -10q12 0 26 3.5t31 11.5l19 -89q-21 -8 -41.5 -12.5t-37.5 -6.5q-19 -3 -36 -3q-29 0 -64 14t-66 51t-52 102.5t-21 168.5z" />
<glyph unicode="&#xaa;" horiz-adv-x="467" d="M33 915q0 29 15 56.5t50 50.5q48 30 82.5 50.5t57.5 37t34 32.5t11 36q0 32 -13 48.5t-34 16.5q-25 0 -37.5 -19.5t-12.5 -45.5q0 -8 0.5 -16t3.5 -19l-137 -2q-2 8 -2 15v15q0 30 7.5 53.5t20 41.5t28 30.5t32.5 20.5q39 19 88 24q62 0 98.5 -19.5t55 -51.5t24 -74.5 t5.5 -87.5v-72q-1 -40 -1 -82q-1 -36 -1 -81t-2 -89l-111 7l2 59q-19 -24 -40.5 -37t-41.5 -19q-23 -7 -45 -8q-29 0 -54 11t-43.5 29t-29 41.5t-10.5 47.5zM147 924q0 -16 12 -27.5t29 -11.5q20 0 38 8.5t32 29.5t22 56.5t9 89.5q-26 -33 -51.5 -50t-45.5 -29.5t-32.5 -26 t-12.5 -39.5z" />
<glyph unicode="&#xab;" horiz-adv-x="983" d="M35 387v205l350 233l84 -196l-303 -127l303 -125l-51 -187zM506 387v205l352 233l82 -196l-303 -131l303 -121l-51 -187z" />
<glyph unicode="&#xac;" horiz-adv-x="711" d="M57 616v203q150 0 293.5 5.5t280.5 15.5v-2l2 2l16 -447l-205 -8l9 248q-99 2 -197.5 -2t-198.5 -15z" />
<glyph unicode="&#xad;" horiz-adv-x="662" d="M57 594v201l549 -15v-184z" />
<glyph unicode="&#xae;" horiz-adv-x="537" d="M41 1063q0 103 19.5 169t52 103.5t73 51.5t82.5 14t83 -11t73.5 -45t52 -96.5t19.5 -165.5q0 -104 -18.5 -170t-50.5 -104.5t-74 -53t-89 -14.5q-46 0 -86.5 12.5t-71 47.5t-48 98t-17.5 164zM115 1067q0 -85 12 -138t32 -83t47.5 -40.5t59.5 -10.5q35 0 67.5 15.5 t55.5 57.5l-80 -4l-61 148q0 -37 3.5 -74t6.5 -72h-88q12 138 12 277q0 40 -1 78.5t-3 78.5q19 5 36.5 6t31.5 1q13 0 36.5 -3.5t46 -17t39.5 -40t17 -72.5q0 -45 -19.5 -84.5t-64.5 -61.5q20 -42 42 -78.5t50 -70.5q16 34 24.5 82.5t8.5 119.5q0 88 -13.5 141t-36 81.5 t-50.5 37.5t-56 9q-29 0 -57 -12t-49.5 -43.5t-35 -86.5t-13.5 -141zM248 1059q25 5 39 20.5t20 32.5q7 19 8 43q0 1 -1 14.5t-6 31t-17 34t-33 22.5q-6 -48 -8 -96.5t-2 -97.5v-4z" />
<glyph unicode="&#xaf;" horiz-adv-x="469" d="M0 1233q2 34 3 67q1 28 0.5 58t-3.5 53q24 -1 57 -1.5t70.5 -1t77.5 0t78 0.5q89 1 186 2v-186z" />
<glyph unicode="&#xb0;" horiz-adv-x="434" d="M25 1219q0 40 15.5 75t42 61t61.5 41t73 15t73 -15t61.5 -41t42.5 -61t16 -75q0 -39 -16 -73t-42.5 -60t-61.5 -41t-73 -15t-73 15t-61.5 41t-42 60t-15.5 73zM143 1219q0 -28 22 -49t50 -21q31 0 52.5 21t21.5 49q0 31 -21.5 51t-52.5 20q-28 0 -50 -20t-22 -51z" />
<glyph unicode="&#xb1;" horiz-adv-x="676" d="M63 92v201l549 -14v-185zM63 594v201l175 -4v178h200l-6 -185l180 -4v-184h-184l-4 -176h-184v174h-177z" />
<glyph unicode="&#xb2;" horiz-adv-x="418" d="M35 1305q19 19 43 30.5t48 17.5t45 7.5t34 1.5q45 0 76 -14.5t50.5 -39t28.5 -56.5t9 -66q0 -45 -14 -89.5t-37.5 -86.5t-54 -82.5t-62.5 -77.5h164v-92h-312v94q30 33 63.5 72.5t62 83.5t47 91.5t18.5 96.5q0 31 -16 43t-50 12q-14 -1 -32 -7q-15 -5 -34.5 -15.5 t-41.5 -28.5z" />
<glyph unicode="&#xb3;" horiz-adv-x="422" d="M31 1311q28 21 55.5 33t51.5 18t42.5 7t28.5 1q34 0 64 -11.5t52.5 -31.5t35 -46.5t12.5 -57.5q0 -47 -34.5 -89t-90.5 -73q48 -20 76 -46t42 -49q17 -27 21 -55q0 -47 -21.5 -79.5t-52.5 -53t-66 -30t-63 -9.5q-1 0 -12 1t-30 5t-45 12t-56 23l20 117q23 -18 43.5 -27.5 t36.5 -14.5q18 -5 35 -7q34 0 54 22t20 50q0 17 -10 32t-27.5 26t-41.5 18.5t-52 9.5v79q23 10 43.5 23.5t35.5 30t24 34.5t9 37q0 17 -14 35.5t-45 18.5q-8 0 -33.5 -7.5t-68.5 -39.5z" />
<glyph unicode="&#xb4;" horiz-adv-x="358" d="M0 1255l197 340q25 -18 53.5 -39.5t52.5 -40.5q28 -22 55 -45l-264 -284z" />
<glyph unicode="&#xb5;" horiz-adv-x="750" d="M63 -395v841q0 76 6 155t15 155.5t20.5 148t22.5 133.5l217 -4q-9 -59 -18.5 -128t-16.5 -141t-11.5 -144.5t-4.5 -137.5q0 -60 5 -112t15.5 -90.5t28 -60t43.5 -21.5q34 0 56 41t35 107.5t17.5 149.5t4.5 167q0 63 -2.5 120t-4.5 102q-3 52 -6 97l226 4 q-8 -161 -11.5 -318.5t-3.5 -316.5q0 -94 0.5 -186t3.5 -186l-198 -5v125q-30 -49 -67 -75t-70.5 -37.5t-57.5 -13t-28 -1.5q-10 2 -17.5 5t-15.5 6l28 -379h-211z" />
<glyph unicode="&#xb6;" horiz-adv-x="995" d="M27 946q0 116 34 211.5t93.5 164t140 106.5t174.5 38q108 0 217.5 -8.5t224.5 -30.5q-5 -136 -7.5 -270t-2.5 -268q0 -220 8 -436.5t25 -436.5l-195 2q0 65 1 129t1 129q0 258 -7 511.5t-19 510.5l-78 7q-5 -107 -5.5 -211.5t-0.5 -210.5q0 -226 7 -448.5t21 -448.5 l-237 8q3 121 5.5 239.5t4.5 239.5q-25 -9 -48.5 -12.5t-43.5 -3.5q-69 0 -126.5 35t-99 99t-64.5 154t-23 201zM240 942q2 -100 19 -178q7 -33 18 -65t27 -57t38 -40.5t51 -15.5q10 0 20 0.5t21 5.5v104q0 149 -2.5 294.5t-7.5 295.5q-35 -5 -61 -22.5t-45.5 -42.5 t-32.5 -55.5t-22 -61.5q-20 -73 -23 -162z" />
<glyph unicode="&#xb7;" horiz-adv-x="334" d="M35 735q0 28 10.5 52t28.5 42t42 28.5t52 10.5q27 0 51 -10.5t41.5 -28.5t28 -42t10.5 -52q0 -27 -10.5 -50.5t-28 -41.5t-41.5 -28.5t-51 -10.5q-28 0 -52 10.5t-42 28.5t-28.5 41.5t-10.5 50.5z" />
<glyph unicode="&#xb8;" horiz-adv-x="266" d="M0 -229q4 -5 14.5 -9t22.5 -6.5t24 -4t19 -1.5q23 0 40 8.5t17 36.5q0 13 -6.5 22t-16.5 14.5t-22 8t-22 2.5q-14 0 -29 -1.5t-29 -6.5l86 227h72l-35 -143q29 1 53 -8.5t41.5 -27t27 -42t9.5 -53.5q0 -30 -11 -54.5t-30 -43t-44.5 -30t-53.5 -15.5q-30 -5 -53.5 -3.5 t-40.5 6.5q-19 5 -33 13v111z" />
<glyph unicode="&#xb9;" horiz-adv-x="348" d="M-6 1241q45 28 91 58.5t83 56.5l125 -4q-9 -118 -13 -238t-4 -235v-123h-131q2 78 4.5 164t2.5 167q0 31 -1 67.5t-1 70.5l-82 -54z" />
<glyph unicode="&#xba;" horiz-adv-x="434" d="M35 1057q0 88 19.5 145.5t47.5 91t60 47t57 13.5q33 0 65 -14.5t57.5 -47.5t41.5 -87t16 -132q0 -92 -19 -150.5t-47.5 -92.5t-61 -47t-58.5 -13q-23 0 -53.5 11t-58.5 42.5t-47 87.5t-19 146zM160 1051q0 -99 17.5 -142t43.5 -43t37.5 53.5t11.5 149.5q0 97 -15 136.5 t-40 39.5q-55 0 -55 -194z" />
<glyph unicode="&#xbb;" horiz-adv-x="983" d="M43 377l301 121l-301 131l82 196l352 -233v-205l-383 -197zM514 377l301 125l-301 127l84 196l350 -233v-205l-383 -197z" />
<glyph unicode="&#xbc;" horiz-adv-x="860" d="M27 1241q45 28 91 58.5t83 56.5l125 -4q-10 -118 -13.5 -238t-3.5 -235v-123h-131q2 78 4 164t2 167q0 31 -1 67.5t-1 70.5l-82 -54zM82 164q44 82 91.5 181.5t95 205.5t92.5 213.5t83.5 207t69.5 185t49 148.5l158 -25q-48 -99 -103.5 -222.5t-116.5 -268t-125.5 -308 t-131.5 -342.5q0 1 -17.5 5t-42.5 8.5t-53 8t-49 3.5zM459 272q15 91 27 184.5t20 190.5h133q-12 -71 -21 -144.5t-12 -142.5h78q2 31 2 60.5v58.5q0 47 -1 95.5t-3 95.5h135q-6 -87 -8 -174t-2 -172q0 -60 1 -123t3 -123h-139q3 48 5.5 96.5t4.5 99.5z" />
<glyph unicode="&#xbd;" horiz-adv-x="868" d="M27 1241q45 28 91 58.5t83 56.5l125 -4q-10 -118 -13.5 -238t-3.5 -235v-123h-131q2 78 4 164t2 167q0 31 -1 67.5t-1 70.5l-82 -54zM82 164q44 82 91.5 181.5t95 205.5t92.5 213.5t83.5 207t69.5 185t49 148.5l158 -25q-48 -99 -103.5 -222.5t-116.5 -268t-125.5 -308 t-131.5 -342.5q0 1 -17.5 5t-42.5 8.5t-53 8t-49 3.5zM494 621q19 19 43 30.5t48 17.5t45 7.5t34 1.5q44 0 75 -14.5t50.5 -39t28.5 -56.5t9 -66v-17t-2 -18q-1 -4 -6 -28t-21.5 -64t-49.5 -93.5t-89 -115.5h164v-92h-311v94q30 33 63.5 72.5t61.5 83.5t46.5 91.5t18.5 96.5 q0 31 -15.5 43t-49.5 12q-14 -1 -32 -7q-15 -5 -34.5 -15.5t-42.5 -28.5z" />
<glyph unicode="&#xbe;" horiz-adv-x="889" d="M33 1311q28 21 56 33t51.5 18t42 7t28.5 1q34 0 64 -11.5t52.5 -31.5t35 -46.5t12.5 -57.5q0 -47 -34.5 -89t-90.5 -73q48 -20 76 -46t42 -49q17 -27 21 -55q0 -47 -21.5 -79.5t-52.5 -53t-66 -30t-63 -9.5q-1 0 -12 1t-30 5t-45 12t-56 23l20 117q23 -18 43.5 -27.5 t36.5 -14.5q18 -5 35 -7q34 0 54 22t20 50q0 17 -10 32t-27.5 26t-41.5 18.5t-52 9.5v79q23 10 43.5 23.5t35.5 30t24 34.5t9 37q0 17 -14 35.5t-45 18.5q-8 0 -33.5 -7.5t-68.5 -39.5zM113 164q44 82 91.5 181.5t95 205.5t92.5 213.5t83.5 207t69 185t49.5 148.5l158 -25 q-48 -99 -104 -222.5t-116.5 -268t-125.5 -308t-132 -342.5q0 1 -17 5t-42 8.5t-53 8t-49 3.5zM489 272q31 181 48 375h133q-13 -71 -21.5 -144.5t-11.5 -142.5h78q2 31 2 60.5v58.5q0 47 -1 95.5t-3 95.5h135q-6 -87 -8 -174t-2 -172q0 -60 1 -123t3 -123h-140 q4 48 6.5 96.5t4.5 99.5z" />
<glyph unicode="&#xbf;" horiz-adv-x="631" d="M27 10q0 93 19 161t49.5 124t68 106t74.5 107t69 127t51 166h136v-29q0 -63 -12.5 -118t-27.5 -97q-18 -48 -40 -88q-30 -51 -65 -98t-64.5 -95.5t-49.5 -102t-20 -116.5q0 -55 12 -93.5t32 -62.5t46 -35t55 -11q27 0 55 7.5t54.5 21t50.5 31t43 38.5l41 -158 q-48 -47 -96.5 -73t-88 -38.5t-66 -15t-31.5 -2.5q-60 0 -113.5 24t-94 69t-64 108.5t-23.5 142.5zM297 1042q0 24 9 45t24.5 36.5t36.5 24.5t45 9t45 -9t36.5 -24.5t25 -36.5t9.5 -45t-9.5 -44.5t-25 -36t-36.5 -24.5t-45 -9t-45 9t-36.5 24.5t-24.5 36t-9 44.5z" />
<glyph unicode="&#xc0;" horiz-adv-x="721" d="M8 4q62 357 112 712t85 716l301 -5q38 -357 91.5 -709.5t125.5 -709.5l-248 -16q-5 69 -9.5 139t-10.5 141q-44 3 -85 6t-83 3h-13q-5 -72 -9 -142t-7 -139zM23 1771q27 23 55 45q24 19 52.5 40.5t54.5 39.5l196 -340l-94 -69zM287 444q21 -2 43 -2h45h65 q-17 186 -38 369t-44 369q-20 -184 -38 -367t-33 -369z" />
<glyph unicode="&#xc1;" horiz-adv-x="721" d="M8 4q62 357 112 712t85 716l301 -5q38 -357 91.5 -709.5t125.5 -709.5l-248 -16q-5 69 -9.5 139t-10.5 141q-44 3 -85 6t-83 3h-13q-5 -72 -9 -142t-7 -139zM287 444q21 -2 43 -2h45h65q-17 186 -38 369t-44 369q-20 -184 -38 -367t-33 -369zM307 1556l197 340 q25 -18 53.5 -39.5t52.5 -40.5q28 -22 55 -45l-264 -284z" />
<glyph unicode="&#xc2;" horiz-adv-x="721" d="M8 4q62 357 112 712t85 716l301 -5q38 -357 91.5 -709.5t125.5 -709.5l-248 -16q-5 69 -9.5 139t-10.5 141q-44 3 -85 6t-83 3h-13q-5 -72 -9 -142t-7 -139zM139 1538l152 336h161l140 -334l-156 -57l-78 235l-65 -241zM287 444q21 -2 43 -2h45h65q-17 186 -38 369 t-44 369q-20 -184 -38 -367t-33 -369z" />
<glyph unicode="&#xc3;" horiz-adv-x="721" d="M8 4q62 357 112 712t85 716l301 -5q38 -357 91.5 -709.5t125.5 -709.5l-248 -16q-5 69 -9.5 139t-10.5 141q-44 3 -85 6t-83 3h-13q-5 -72 -9 -142t-7 -139zM70 1586q16 36 32 66t36.5 51.5t47 33.5t64.5 12q41 0 70 -13.5t52 -29.5t42.5 -29.5t40.5 -13.5 q28 0 49.5 16.5t37.5 36.5q18 24 32 54l86 -123q-22 -45 -51 -80q-25 -30 -61.5 -55t-82.5 -25q-30 1 -53.5 16t-45 33t-44 32.5t-49.5 14.5q-35 0 -56 -24.5t-47 -71.5zM287 444q21 -2 43 -2h45h65q-17 186 -38 369t-44 369q-20 -184 -38 -367t-33 -369z" />
<glyph unicode="&#xc4;" horiz-adv-x="721" d="M8 4q62 357 112 712t85 716l301 -5q38 -357 91.5 -709.5t125.5 -709.5l-248 -16q-5 69 -9.5 139t-10.5 141q-44 3 -85 6t-83 3h-13q-5 -72 -9 -142t-7 -139zM123 1581q0 22 8.5 42t23 34t34 22.5t40.5 8.5q22 0 41.5 -8.5t34 -22.5t23 -34t8.5 -42q0 -21 -8.5 -40 t-23 -33.5t-34 -22.5t-41.5 -8q-21 0 -40.5 8t-34 22.5t-23 33.5t-8.5 40zM287 444q21 -2 43 -2h45h65q-17 186 -38 369t-44 369q-20 -184 -38 -367t-33 -369zM393 1581q0 22 8.5 42t23 34t34 22.5t41.5 8.5q21 0 40.5 -8.5t34 -22.5t23 -34t8.5 -42q0 -21 -8.5 -40 t-23 -33.5t-34 -22.5t-40.5 -8q-22 0 -41.5 8t-34 22.5t-23 33.5t-8.5 40z" />
<glyph unicode="&#xc5;" horiz-adv-x="719" d="M8 4q60 351 110 700.5t85 704.5q-16 22 -23.5 47.5t-7.5 52.5q0 40 15.5 75t42 61.5t61.5 41.5t74 15q38 0 73 -15t61.5 -41.5t42 -61.5t15.5 -75q0 -35 -12.5 -65.5t-34.5 -54.5q38 -348 90 -691.5t123 -689.5l-248 -16q-5 69 -9.5 139t-10.5 141q-44 3 -85 6t-83 3h-13 q-5 -72 -9 -142t-7 -139zM287 444q21 -2 43 -2h45h65q-17 186 -38 369t-44 369q-20 -184 -38 -367t-33 -369zM291 1509q0 -14 6 -26t16 -22t22.5 -15.5t26.5 -5.5q31 0 52.5 21t21.5 48q0 31 -21.5 51.5t-52.5 20.5q-27 0 -49 -20.5t-22 -51.5z" />
<glyph unicode="&#xc6;" horiz-adv-x="1001" d="M-14 4q103 357 195.5 712t170.5 716q46 -2 96 -3q43 -1 96 -1.5t107 -0.5q44 0 83 1t76 2.5t73.5 4t74.5 5.5v-230q-124 23 -243 23h-39q-9 -125 -13 -249t-6 -249q26 -2 52.5 -2h54.5h47t49 2v-200q-31 2 -63 3t-64 1q-18 0 -37.5 -1t-38.5 -1l-4 -357q82 2 159.5 8 t164.5 19v-209q-56 2 -108 3t-105 1q-77 0 -153.5 -2.5t-157.5 -7.5l12 280q-43 3 -85.5 6t-84.5 3h-12l-50 -281zM315 444q22 -2 43.5 -2h44.5h66q2 73 3 144t1 143q0 203 -6 410q-40 -175 -79 -347.5t-73 -347.5z" />
<glyph unicode="&#xc7;" horiz-adv-x="635" d="M39 723q0 153 21.5 267t56 195.5t78 134t88.5 83t87.5 42t73.5 11.5q29 -1 57 -6q24 -5 50.5 -15t46.5 -28l-20 -201q-28 14 -52.5 20.5t-46.5 6.5q-42 0 -74.5 -22.5t-56 -59.5t-40 -84t-26.5 -96q-25 -115 -28 -262q3 -146 29 -260q11 -49 27.5 -95.5t40.5 -83 t56.5 -58.5t75.5 -22q47 0 109 33l37 -198q-39 -18 -77 -27.5t-68 -14.5q-35 -5 -68 -6q-16 0 -31.5 3t-32.5 8l-16 -70q29 1 53 -8.5t41.5 -27t27 -42t9.5 -53.5q0 -30 -11 -54.5t-30 -43t-44.5 -30t-53.5 -15.5q-30 -5 -53.5 -3.5t-40.5 6.5q-19 5 -33 13v111 q4 -5 14.5 -9t22.5 -6.5t24 -4t19 -1.5q23 0 40 8.5t17 36.5q0 13 -6.5 22t-16.5 14.5t-22 8t-23 2.5q-14 0 -28.5 -1.5t-28.5 -6.5l70 182q-45 27 -89 78.5t-78.5 136t-55.5 205.5t-21 287z" />
<glyph unicode="&#xc8;" horiz-adv-x="614" d="M0 1769q27 23 55 45q24 19 52.5 40.5t54.5 39.5l196 -340l-94 -69zM66 -8q9 186 14.5 368.5t5.5 368.5q0 178 -4.5 353.5t-15.5 353.5q118 -9 225 -9q68 0 135.5 3.5t144.5 9.5v-230q-62 11 -122.5 17t-120.5 6h-39q-10 -125 -13.5 -249t-5.5 -249q26 -2 52.5 -2h54.5h47 t49 2v-200q-31 2 -63 3t-64 1q-18 0 -37.5 -1t-38.5 -1l-4 -357q82 2 159.5 8t164.5 19v-209q-56 2 -108.5 3t-104.5 1q-78 0 -154 -2.5t-157 -7.5z" />
<glyph unicode="&#xc9;" horiz-adv-x="614" d="M66 -8q9 186 14.5 368.5t5.5 368.5q0 178 -4.5 353.5t-15.5 353.5q118 -9 225 -9q68 0 135.5 3.5t144.5 9.5v-230q-62 11 -122.5 17t-120.5 6h-39q-10 -125 -13.5 -249t-5.5 -249q26 -2 52.5 -2h54.5h47t49 2v-200q-31 2 -63 3t-64 1q-18 0 -37.5 -1t-38.5 -1l-4 -357 q82 2 159.5 8t164.5 19v-209q-56 2 -108.5 3t-104.5 1q-78 0 -154 -2.5t-157 -7.5zM219 1548l197 340q25 -18 53.5 -39.5t52.5 -40.5q28 -22 55 -45l-264 -284z" />
<glyph unicode="&#xca;" horiz-adv-x="614" d="M66 -8q9 186 14.5 368.5t5.5 368.5q0 178 -4.5 353.5t-15.5 353.5q118 -9 225 -9q68 0 135.5 3.5t144.5 9.5v-230q-62 11 -122.5 17t-120.5 6h-39q-10 -125 -13.5 -249t-5.5 -249q26 -2 52.5 -2h54.5h47t49 2v-200q-31 2 -63 3t-64 1q-18 0 -37.5 -1t-38.5 -1l-4 -357 q82 2 159.5 8t164.5 19v-209q-56 2 -108.5 3t-104.5 1q-78 0 -154 -2.5t-157 -7.5zM100 1538l152 336h161l140 -334l-156 -57l-78 235l-65 -241z" />
<glyph unicode="&#xcb;" horiz-adv-x="614" d="M66 -8q9 186 14.5 368.5t5.5 368.5q0 178 -4.5 353.5t-15.5 353.5q118 -9 225 -9q68 0 135.5 3.5t144.5 9.5v-230q-62 11 -122.5 17t-120.5 6h-39q-10 -125 -13.5 -249t-5.5 -249q26 -2 52.5 -2h54.5h47t49 2v-200q-31 2 -63 3t-64 1q-18 0 -37.5 -1t-38.5 -1l-4 -357 q82 2 159.5 8t164.5 19v-209q-56 2 -108.5 3t-104.5 1q-78 0 -154 -2.5t-157 -7.5zM86 1591q0 22 8.5 42t23 34t34 22.5t40.5 8.5q22 0 41.5 -8.5t34 -22.5t23 -34t8.5 -42q0 -21 -8.5 -40t-23 -33.5t-34 -22.5t-41.5 -8q-21 0 -40.5 8t-34 22.5t-23 33.5t-8.5 40zM356 1591 q0 22 8.5 42t23 34t34 22.5t41.5 8.5q21 0 40.5 -8.5t34 -22.5t23 -34t8.5 -42q0 -21 -8.5 -40t-23 -33.5t-34 -22.5t-40.5 -8q-22 0 -41.5 8t-34 22.5t-23 33.5t-8.5 40z" />
<glyph unicode="&#xcc;" horiz-adv-x="498" d="M-75 1769q27 23 55 45q24 19 52.5 40.5t54.5 39.5l196 -340l-94 -69zM33 1233l2 209q77 -5 154 -7.5t155 -2.5h56t57 2l-6 -199q-23 0 -45.5 1t-45.5 1q-14 -180 -20 -357.5t-6 -357.5q0 -157 6 -313q32 0 65.5 1t67.5 3l-10 -199q-40 2 -80 3t-80 1q-66 0 -132 -2.5 t-132 -7.5l2 215q23 -3 46 -4.5t46 -3.5q6 155 11.5 308.5t5.5 307.5q0 103 -3 203.5t-6 202.5q-26 0 -53 -1t-55 -3z" />
<glyph unicode="&#xcd;" horiz-adv-x="498" d="M33 1233l2 209q77 -5 154 -7.5t155 -2.5h56t57 2l-6 -199q-23 0 -45.5 1t-45.5 1q-14 -180 -20 -357.5t-6 -357.5q0 -157 6 -313q32 0 65.5 1t67.5 3l-10 -199q-40 2 -80 3t-80 1q-66 0 -132 -2.5t-132 -7.5l2 215q23 -3 46 -4.5t46 -3.5q6 155 11.5 308.5t5.5 307.5 q0 103 -3 203.5t-6 202.5q-26 0 -53 -1t-55 -3zM223 1542l197 340q25 -18 53.5 -39.5t52.5 -40.5q28 -22 55 -45l-264 -284z" />
<glyph unicode="&#xce;" horiz-adv-x="498" d="M27 1548l152 336h161l140 -334l-156 -57l-78 235l-65 -241zM33 1233l2 209q77 -5 154 -7.5t155 -2.5h56t57 2l-6 -199q-23 0 -45.5 1t-45.5 1q-14 -180 -20 -357.5t-6 -357.5q0 -157 6 -313q32 0 65.5 1t67.5 3l-10 -199q-40 2 -80 3t-80 1q-66 0 -132 -2.5t-132 -7.5 l2 215q23 -3 46 -4.5t46 -3.5q6 155 11.5 308.5t5.5 307.5q0 103 -3 203.5t-6 202.5q-26 0 -53 -1t-55 -3z" />
<glyph unicode="&#xcf;" horiz-adv-x="498" d="M12 1607q0 22 8.5 42t23 34t34 22.5t40.5 8.5q22 0 41.5 -8.5t34 -22.5t23 -34t8.5 -42q0 -21 -8.5 -40t-23 -33.5t-34 -22.5t-41.5 -8q-21 0 -40.5 8t-34 22.5t-23 33.5t-8.5 40zM33 1233l2 209q77 -5 154 -7.5t155 -2.5h56t57 2l-6 -199q-23 0 -45.5 1t-45.5 1 q-14 -180 -20 -357.5t-6 -357.5q0 -157 6 -313q32 0 65.5 1t67.5 3l-10 -199q-40 2 -80 3t-80 1q-66 0 -132 -2.5t-132 -7.5l2 215q23 -3 46 -4.5t46 -3.5q6 155 11.5 308.5t5.5 307.5q0 103 -3 203.5t-6 202.5q-26 0 -53 -1t-55 -3zM282 1607q0 22 8.5 42t23 34t34 22.5 t41.5 8.5q21 0 40.5 -8.5t34 -22.5t23 -34t8.5 -42q0 -21 -8.5 -40t-23 -33.5t-34 -22.5t-40.5 -8q-22 0 -41.5 8t-34 22.5t-23 33.5t-8.5 40z" />
<glyph unicode="&#xd0;" horiz-adv-x="762" d="M2 573v201l109 -4q0 170 -4 337.5t-13 334.5q73 7 130.5 3.5t98.5 -10.5q48 -8 83 -20q29 -12 63.5 -28.5t69.5 -46.5t68 -79.5t58 -127.5t40.5 -189t15.5 -264q0 -155 -22.5 -267.5t-59.5 -191.5t-83.5 -128t-94.5 -76t-93 -36.5t-79 -9.5l-205 17q9 145 15 291t10 294 h-107zM301.5 364q0.5 -105 3.5 -217q47 6 80.5 36t57 75.5t38 102.5t22.5 117.5t10.5 119.5t2.5 109q0 49 -2 104.5t-8.5 110.5t-19 107t-33.5 95.5t-51.5 74.5t-73.5 44q-8 -127 -13 -245t-8 -234l121 -4v-185h-125q-2 -106 -1.5 -211z" />
<glyph unicode="&#xd1;" horiz-adv-x="850" d="M66 1448l280 -6q51 -220 109 -447t123 -448q-7 226 -20.5 452.5t-29.5 444.5l263 -2q-13 -201 -20 -398.5t-7 -396.5q0 -155 4.5 -306t15.5 -304l-202 6q-40 130 -78.5 258.5t-76.5 255.5t-77.5 253t-81.5 251q3 -261 9.5 -520.5t23.5 -517.5l-231 2q12 319 12 641 q0 198 -4 392t-12 390zM133 1600q16 36 32 66t36.5 51.5t47 33.5t64.5 12q41 0 70 -13.5t52 -29.5t42.5 -29.5t40.5 -13.5q28 0 49.5 16.5t37.5 36.5q18 24 32 54l86 -123q-22 -45 -51 -80q-25 -30 -61.5 -55t-82.5 -25q-30 1 -53.5 16t-45 33t-44 32.5t-49.5 14.5 q-35 0 -56 -24.5t-47 -71.5z" />
<glyph unicode="&#xd2;" d="M41 700q0 207 27.5 351.5t75.5 235t112 131t137 40.5t137 -39.5t111 -129.5t74.5 -234.5t27.5 -354.5q0 -201 -27.5 -341t-74.5 -227.5t-111 -127t-137 -39.5t-137 37.5t-112 123.5t-75.5 227t-27.5 347zM49 1781q27 23 55 45q24 19 52.5 40.5t54.5 39.5l196 -340 l-94 -69zM264 700q0 -154 10 -258.5t27.5 -168t41 -90.5t50.5 -27q26 0 49 28.5t40.5 93t27.5 168.5t10 254q0 157 -10 265t-27.5 175.5t-40.5 97.5t-49 30q-27 0 -50.5 -30.5t-41 -98t-27.5 -176t-10 -263.5z" />
<glyph unicode="&#xd3;" d="M41 700q0 207 27.5 351.5t75.5 235t112 131t137 40.5t137 -39.5t111 -129.5t74.5 -234.5t27.5 -354.5q0 -201 -27.5 -341t-74.5 -227.5t-111 -127t-137 -39.5t-137 37.5t-112 123.5t-75.5 227t-27.5 347zM264 700q0 -154 10 -258.5t27.5 -168t41 -90.5t50.5 -27 q26 0 49 28.5t40.5 93t27.5 168.5t10 254q0 157 -10 265t-27.5 175.5t-40.5 97.5t-49 30q-27 0 -50.5 -30.5t-41 -98t-27.5 -176t-10 -263.5zM377 1577l197 340q25 -18 53.5 -39.5t52.5 -40.5q28 -22 55 -45l-264 -284z" />
<glyph unicode="&#xd4;" d="M41 700q0 207 27.5 351.5t75.5 235t112 131t137 40.5t137 -39.5t111 -129.5t74.5 -234.5t27.5 -354.5q0 -201 -27.5 -341t-74.5 -227.5t-111 -127t-137 -39.5t-137 37.5t-112 123.5t-75.5 227t-27.5 347zM166 1564l152 336h161l140 -334l-156 -57l-78 235l-65 -241z M264 700q0 -154 10 -258.5t27.5 -168t41 -90.5t50.5 -27q26 0 49 28.5t40.5 93t27.5 168.5t10 254q0 157 -10 265t-27.5 175.5t-40.5 97.5t-49 30q-27 0 -50.5 -30.5t-41 -98t-27.5 -176t-10 -263.5z" />
<glyph unicode="&#xd5;" d="M41 700q0 207 27.5 351.5t75.5 235t112 131t137 40.5t137 -39.5t111 -129.5t74.5 -234.5t27.5 -354.5q0 -201 -27.5 -341t-74.5 -227.5t-111 -127t-137 -39.5t-137 37.5t-112 123.5t-75.5 227t-27.5 347zM96 1598q16 36 32 66t36.5 51.5t47 33.5t64.5 12q41 0 70 -13.5 t52 -29.5t42.5 -29.5t40.5 -13.5q28 0 49.5 16.5t37.5 36.5q18 24 32 54l86 -123q-22 -45 -51 -80q-25 -30 -61.5 -55t-82.5 -25q-30 1 -53.5 16t-45 33t-44 32.5t-49.5 14.5q-35 0 -56 -24.5t-47 -71.5zM264 700q0 -154 10 -258.5t27.5 -168t41 -90.5t50.5 -27 q26 0 49 28.5t40.5 93t27.5 168.5t10 254q0 157 -10 265t-27.5 175.5t-40.5 97.5t-49 30q-27 0 -50.5 -30.5t-41 -98t-27.5 -176t-10 -263.5z" />
<glyph unicode="&#xd6;" d="M41 700q0 207 27.5 351.5t75.5 235t112 131t137 40.5t137 -39.5t111 -129.5t74.5 -234.5t27.5 -354.5q0 -201 -27.5 -341t-74.5 -227.5t-111 -127t-137 -39.5t-137 37.5t-112 123.5t-75.5 227t-27.5 347zM150 1609q0 22 8.5 42t23 34t34 22.5t40.5 8.5q22 0 41.5 -8.5 t34 -22.5t23 -34t8.5 -42q0 -21 -8.5 -40t-23 -33.5t-34 -22.5t-41.5 -8q-21 0 -40.5 8t-34 22.5t-23 33.5t-8.5 40zM264 700q0 -154 10 -258.5t27.5 -168t41 -90.5t50.5 -27q26 0 49 28.5t40.5 93t27.5 168.5t10 254q0 157 -10 265t-27.5 175.5t-40.5 97.5t-49 30 q-27 0 -50.5 -30.5t-41 -98t-27.5 -176t-10 -263.5zM420 1609q0 22 8.5 42t23 34t34 22.5t41.5 8.5q21 0 40.5 -8.5t34 -22.5t23 -34t8.5 -42q0 -21 -8.5 -40t-23 -33.5t-34 -22.5t-40.5 -8q-22 0 -41.5 8t-34 22.5t-23 33.5t-8.5 40z" />
<glyph unicode="&#xd7;" horiz-adv-x="625" d="M49 571q38 29 75.5 59.5t72.5 61.5q-35 32 -72.5 64t-75.5 61l141 141q29 -40 60 -79t63 -76q35 35 68 71.5t65 73.5l132 -129q-41 -32 -79 -65.5t-73 -67.5q34 -32 69 -64t72 -61l-129 -131q-29 38 -60 74.5t-63 70.5q-32 -35 -64 -71.5t-61 -73.5z" />
<glyph unicode="&#xd8;" d="M41 700q0 207 27.5 351.5t75.5 235t112 131t137 40.5q40 0 78 -11.5t72 -37.5q5 20 9.5 35.5t7.5 26.5q4 12 7 22l185 -16q-11 -31 -24 -69q-11 -32 -26.5 -77.5t-33.5 -99.5q35 -91 55 -222t20 -309q0 -201 -27.5 -341t-74.5 -227.5t-111 -127t-137 -39.5 q-32 0 -63.5 6.5t-59.5 22.5l-22 -84q-31 5 -63 9q-27 3 -59.5 6t-62.5 3h-20q19 41 41.5 96t48.5 123q-43 88 -67.5 223t-24.5 330zM264 700q0 -46 1 -86t3 -77q28 84 55.5 168.5t53.5 167t49.5 159.5t44.5 146q-15 48 -35.5 69t-42.5 21q-27 0 -50.5 -30.5t-41 -98 t-27.5 -176t-10 -263.5zM332 199q14 -23 29 -33t32 -10q26 0 49 28.5t40.5 93t27.5 168.5t10 254v43t-2 41q-49 -149 -97.5 -300t-88.5 -285z" />
<glyph unicode="&#xd9;" horiz-adv-x="741" d="M45 545q0 208 17 421.5t40 442.5l209 -4q-18 -215 -33.5 -434t-15.5 -451q0 -67 4 -127t14 -105.5t25.5 -72.5t38.5 -27q27 0 49.5 42.5t38 112t24.5 158.5t9 181q0 88 -1.5 177t-4.5 180.5t-8 187t-13 198.5l199 23q23 -204 32 -412.5t9 -435.5q0 -77 -6.5 -152.5 t-22 -144t-41 -127t-63.5 -101t-90 -67t-119 -24.5q-60 0 -105 22.5t-77 62t-53.5 93t-33.5 116t-17 130.5t-5 137zM72 1759q27 23 55 45q24 19 52.5 40.5t54.5 39.5l196 -340l-94 -69z" />
<glyph unicode="&#xda;" horiz-adv-x="741" d="M45 545q0 208 17 421.5t40 442.5l209 -4q-18 -215 -33.5 -434t-15.5 -451q0 -67 4 -127t14 -105.5t25.5 -72.5t38.5 -27q27 0 49.5 42.5t38 112t24.5 158.5t9 181q0 88 -1.5 177t-4.5 180.5t-8 187t-13 198.5l199 23q23 -204 32 -412.5t9 -435.5q0 -77 -6.5 -152.5 t-22 -144t-41 -127t-63.5 -101t-90 -67t-119 -24.5q-60 0 -105 22.5t-77 62t-53.5 93t-33.5 116t-17 130.5t-5 137zM322 1556l197 340q25 -18 53.5 -39.5t52.5 -40.5q28 -22 55 -45l-264 -284z" />
<glyph unicode="&#xdb;" horiz-adv-x="741" d="M45 545q0 208 17 421.5t40 442.5l209 -4q-18 -215 -33.5 -434t-15.5 -451q0 -67 4 -127t14 -105.5t25.5 -72.5t38.5 -27q27 0 49.5 42.5t38 112t24.5 158.5t9 181q0 88 -1.5 177t-4.5 180.5t-8 187t-13 198.5l199 23q23 -204 32 -412.5t9 -435.5q0 -77 -6.5 -152.5 t-22 -144t-41 -127t-63.5 -101t-90 -67t-119 -24.5q-60 0 -105 22.5t-77 62t-53.5 93t-33.5 116t-17 130.5t-5 137zM135 1544l152 336h161l140 -334l-156 -57l-78 235l-65 -241z" />
<glyph unicode="&#xdc;" horiz-adv-x="741" d="M45 545q0 208 17 421.5t40 442.5l209 -4q-18 -215 -33.5 -434t-15.5 -451q0 -67 4 -127t14 -105.5t25.5 -72.5t38.5 -27q27 0 49.5 42.5t38 112t24.5 158.5t9 181q0 88 -1.5 177t-4.5 180.5t-8 187t-13 198.5l199 23q23 -204 32 -412.5t9 -435.5q0 -77 -6.5 -152.5 t-22 -144t-41 -127t-63.5 -101t-90 -67t-119 -24.5q-60 0 -105 22.5t-77 62t-53.5 93t-33.5 116t-17 130.5t-5 137zM119 1597q0 22 8.5 42t23 34t34 22.5t40.5 8.5q22 0 41.5 -8.5t34 -22.5t23 -34t8.5 -42q0 -21 -8.5 -40t-23 -33.5t-34 -22.5t-41.5 -8q-21 0 -40.5 8 t-34 22.5t-23 33.5t-8.5 40zM389 1597q0 22 8.5 42t23 34t34 22.5t41.5 8.5q21 0 40.5 -8.5t34 -22.5t23 -34t8.5 -42q0 -21 -8.5 -40t-23 -33.5t-34 -22.5t-40.5 -8q-22 0 -41.5 8t-34 22.5t-23 33.5t-8.5 40z" />
<glyph unicode="&#xdd;" horiz-adv-x="713" d="M8 1415l250 21q4 -82 13.5 -173.5t22.5 -186.5t29 -192t33 -190q19 95 37.5 193.5t34.5 194.5t29.5 187t23.5 171l246 -6q-80 -254 -149.5 -512.5t-131.5 -499.5v-62q0 -50 1.5 -94.5t3.5 -88t5.5 -89t8.5 -96.5h-240q8 62 14 115.5t9.5 105.5t5.5 107t2 120 q-28 115 -58.5 239t-62.5 249t-64 248.5t-63 238.5zM309 1515l197 340q25 -18 53.5 -39.5t52.5 -40.5q28 -22 55 -45l-264 -284z" />
<glyph unicode="&#xde;" horiz-adv-x="682" d="M55 -8q25 360 30.5 730t-9.5 736q68 -5 133 -7.5t119 -2.5l-25 -272l29 -2q33 -3 72.5 -16t78.5 -39.5t74.5 -68t61 -101t37 -138.5t3.5 -180q-13 -106 -56 -197q-18 -39 -45 -78t-65 -73t-87.5 -60.5t-112.5 -40.5q2 -46 2.5 -91t3.5 -99h-244zM285 505.5 q0 -74.5 2 -153.5q32 12 56.5 32t42.5 45t30.5 52.5t20.5 54.5q18 63 22 136q-2 83 -20 153q-8 30 -19.5 59.5t-28 55t-39.5 44.5t-53 28q-5 -103 -8 -189.5t-4.5 -164.5t-1.5 -152.5z" />
<glyph unicode="&#xdf;" horiz-adv-x="895" d="M12 868v179h92q2 58 3 86q1 17 2 28q0 80 26.5 145t71 111t103 71t122.5 25q67 0 127 -26.5t104.5 -72.5t70.5 -107t26 -131q0 -51 -11.5 -93t-29 -77t-37.5 -65t-37.5 -57.5t-29 -53.5t-11.5 -54q0 -51 20.5 -88t51 -70t66.5 -65t67.5 -73t53.5 -94t24 -128 q0 -88 -29.5 -147.5t-74 -96t-97.5 -52t-100 -15.5q-35 1 -68 8q-29 6 -62 18.5t-59 36.5l9 228q36 -29 73 -45t68 -24q35 -9 69 -11q28 15 44 42.5t16 61.5q0 48 -21 86t-52 73.5t-67.5 71t-67.5 77.5t-52 94.5t-21 121.5q0 48 11 82.5t27 61t35 48.5t35 44.5t27 48 t11 59.5q0 42 -10 72t-25 49.5t-33.5 29t-36.5 9.5q-35 0 -58 -20t-37 -75.5t-20.5 -154.5t-7.5 -256q-2 -125 -3 -258q-1 -57 -1.5 -121.5t-1 -132t-0.5 -137.5v-137l-194 -6q-7 256 -9 447.5t-2 328.5v100h-90z" />
<glyph unicode="&#xe0;" horiz-adv-x="711" d="M23 252q0 57 24.5 112.5t83.5 100.5q79 61 137 102t96.5 74.5t57 64t18.5 70.5q0 66 -22 98.5t-58 32.5q-22 0 -37.5 -11.5t-25 -30t-14 -41t-4.5 -44.5q0 -15 1.5 -33t6.5 -38l-230 -4q-2 17 -3 32.5t-1 30.5q0 62 21 122.5t61.5 108t98.5 76.5t133 29q97 0 153.5 -40.5 t86 -106.5t38 -149.5t8.5 -170.5q0 -158 -1.5 -316t-6.5 -329l-174 10v135q-30 -54 -68 -82.5t-72 -42.5q-40 -16 -79 -18q-48 0 -90 21.5t-73 57.5t-48.5 82.5t-17.5 96.5zM37 1442q27 23 55 45q24 19 52.5 40.5t54.5 39.5l196 -340l-94 -69zM215 268q0 -28 19 -51.5 t47 -23.5q21 0 43.5 12t43 34t36.5 51t24 64q5 25 9 57q4 27 7 65.5t5 86.5q-16 -22 -31 -39t-28 -30q-15 -15 -28 -27q-23 -19 -49 -42.5t-47.5 -49.5t-36 -53.5t-14.5 -53.5z" />
<glyph unicode="&#xe1;" horiz-adv-x="711" d="M23 252q0 57 24.5 112.5t83.5 100.5q79 61 137 102t96.5 74.5t57 64t18.5 70.5q0 66 -22 98.5t-58 32.5q-22 0 -37.5 -11.5t-25 -30t-14 -41t-4.5 -44.5q0 -15 1.5 -33t6.5 -38l-230 -4q-2 17 -3 32.5t-1 30.5q0 62 21 122.5t61.5 108t98.5 76.5t133 29q97 0 153.5 -40.5 t86 -106.5t38 -149.5t8.5 -170.5q0 -158 -1.5 -316t-6.5 -329l-174 10v135q-30 -54 -68 -82.5t-72 -42.5q-40 -16 -79 -18q-48 0 -90 21.5t-73 57.5t-48.5 82.5t-17.5 96.5zM215 268q0 -28 19 -51.5t47 -23.5q21 0 43.5 12t43 34t36.5 51t24 64q5 25 9 57q4 27 7 65.5 t5 86.5q-16 -22 -31 -39t-28 -30q-15 -15 -28 -27q-23 -19 -49 -42.5t-47.5 -49.5t-36 -53.5t-14.5 -53.5zM344 1223l197 340q25 -18 53.5 -39.5t52.5 -40.5q28 -22 55 -45l-264 -284z" />
<glyph unicode="&#xe2;" horiz-adv-x="711" d="M23 252q0 57 24.5 112.5t83.5 100.5q79 61 137 102t96.5 74.5t57 64t18.5 70.5q0 66 -22 98.5t-58 32.5q-22 0 -37.5 -11.5t-25 -30t-14 -41t-4.5 -44.5q0 -15 1.5 -33t6.5 -38l-230 -4q-2 17 -3 32.5t-1 30.5q0 62 21 122.5t61.5 108t98.5 76.5t133 29q97 0 153.5 -40.5 t86 -106.5t38 -149.5t8.5 -170.5q0 -158 -1.5 -316t-6.5 -329l-174 10v135q-30 -54 -68 -82.5t-72 -42.5q-40 -16 -79 -18q-48 0 -90 21.5t-73 57.5t-48.5 82.5t-17.5 96.5zM111 1213l152 336h161l140 -334l-156 -57l-78 235l-65 -241zM215 268q0 -28 19 -51.5t47 -23.5 q21 0 43.5 12t43 34t36.5 51t24 64q5 25 9 57q4 27 7 65.5t5 86.5q-16 -22 -31 -39t-28 -30q-15 -15 -28 -27q-23 -19 -49 -42.5t-47.5 -49.5t-36 -53.5t-14.5 -53.5z" />
<glyph unicode="&#xe3;" horiz-adv-x="711" d="M23 252q0 57 24.5 112.5t83.5 100.5q79 61 137 102t96.5 74.5t57 64t18.5 70.5q0 66 -22 98.5t-58 32.5q-22 0 -37.5 -11.5t-25 -30t-14 -41t-4.5 -44.5q0 -15 1.5 -33t6.5 -38l-230 -4q-2 17 -3 32.5t-1 30.5q0 62 21 122.5t61.5 108t98.5 76.5t133 29q97 0 153.5 -40.5 t86 -106.5t38 -149.5t8.5 -170.5q0 -158 -1.5 -316t-6.5 -329l-174 10v135q-30 -54 -68 -82.5t-72 -42.5q-40 -16 -79 -18q-48 0 -90 21.5t-73 57.5t-48.5 82.5t-17.5 96.5zM55 1257q16 36 32 66t36.5 51.5t47 33.5t64.5 12q41 0 70 -13.5t52 -29.5t42.5 -29.5t40.5 -13.5 q28 0 49.5 16.5t37.5 36.5q18 24 32 54l86 -123q-22 -45 -51 -80q-25 -30 -61.5 -55t-82.5 -25q-30 1 -53.5 16t-45 33t-44 32.5t-49.5 14.5q-35 0 -56 -24.5t-47 -71.5zM215 268q0 -28 19 -51.5t47 -23.5q21 0 43.5 12t43 34t36.5 51t24 64q5 25 9 57q4 27 7 65.5t5 86.5 q-16 -22 -31 -39t-28 -30q-15 -15 -28 -27q-23 -19 -49 -42.5t-47.5 -49.5t-36 -53.5t-14.5 -53.5z" />
<glyph unicode="&#xe4;" horiz-adv-x="711" d="M23 252q0 57 24.5 112.5t83.5 100.5q79 61 137 102t96.5 74.5t57 64t18.5 70.5q0 66 -22 98.5t-58 32.5q-22 0 -37.5 -11.5t-25 -30t-14 -41t-4.5 -44.5q0 -15 1.5 -33t6.5 -38l-230 -4q-2 17 -3 32.5t-1 30.5q0 62 21 122.5t61.5 108t98.5 76.5t133 29q97 0 153.5 -40.5 t86 -106.5t38 -149.5t8.5 -170.5q0 -158 -1.5 -316t-6.5 -329l-174 10v135q-30 -54 -68 -82.5t-72 -42.5q-40 -16 -79 -18q-48 0 -90 21.5t-73 57.5t-48.5 82.5t-17.5 96.5zM109 1260q0 22 8.5 42t23 34t34 22.5t40.5 8.5q22 0 41.5 -8.5t34 -22.5t23 -34t8.5 -42 q0 -21 -8.5 -40t-23 -33.5t-34 -22.5t-41.5 -8q-21 0 -40.5 8t-34 22.5t-23 33.5t-8.5 40zM215 268q0 -28 19 -51.5t47 -23.5q21 0 43.5 12t43 34t36.5 51t24 64q5 25 9 57q4 27 7 65.5t5 86.5q-16 -22 -31 -39t-28 -30q-15 -15 -28 -27q-23 -19 -49 -42.5t-47.5 -49.5 t-36 -53.5t-14.5 -53.5zM379 1260q0 22 8.5 42t23 34t34 22.5t41.5 8.5q21 0 40.5 -8.5t34 -22.5t23 -34t8.5 -42q0 -21 -8.5 -40t-23 -33.5t-34 -22.5t-40.5 -8q-22 0 -41.5 8t-34 22.5t-23 33.5t-8.5 40z" />
<glyph unicode="&#xe5;" horiz-adv-x="711" d="M23 252q0 57 24.5 112.5t83.5 100.5q79 61 137 102t96.5 74.5t57 64t18.5 70.5q0 66 -22 98.5t-58 32.5q-22 0 -37.5 -11.5t-25 -30t-14 -41t-4.5 -44.5q0 -15 1.5 -33t6.5 -38l-230 -4q-2 17 -3 32.5t-1 30.5q0 62 21 122.5t61.5 108t98.5 76.5t133 29q97 0 153.5 -40.5 t86 -106.5t38 -149.5t8.5 -170.5q0 -158 -1.5 -316t-6.5 -329l-174 10v135q-30 -54 -68 -82.5t-72 -42.5q-40 -16 -79 -18q-48 0 -90 21.5t-73 57.5t-48.5 82.5t-17.5 96.5zM158 1357q0 40 15.5 75t42 61.5t61.5 41.5t74 15q38 0 73 -15t61.5 -41.5t42 -61.5t15.5 -75 q0 -38 -15.5 -72.5t-42 -60t-61.5 -40.5t-73 -15q-39 0 -74 15t-61.5 40.5t-42 60t-15.5 72.5zM215 268q0 -28 19 -51.5t47 -23.5q21 0 43.5 12t43 34t36.5 51t24 64q5 25 9 57q4 27 7 65.5t5 86.5q-16 -22 -31 -39t-28 -30q-15 -15 -28 -27q-23 -19 -49 -42.5t-47.5 -49.5 t-36 -53.5t-14.5 -53.5zM277 1357q0 -28 22 -48.5t49 -20.5q31 0 52.5 20.5t21.5 48.5q0 31 -21.5 51.5t-52.5 20.5q-27 0 -49 -20.5t-22 -51.5z" />
<glyph unicode="&#xe6;" horiz-adv-x="1079" d="M23 252q0 57 24.5 112.5t83.5 100.5q79 61 137 102t96.5 74.5t57 64t18.5 70.5q0 66 -22 98.5t-58 32.5q-22 0 -37.5 -11.5t-25 -30t-14 -41t-4.5 -44.5q0 -15 1.5 -33t6.5 -38l-230 -4q-2 17 -3 32.5t-1 30.5q0 81 22 137.5t55 93.5t72.5 58.5t74.5 31.5t60 12.5t30 2.5 q77 0 128 -25.5t83 -70.5q37 46 83.5 71t102.5 25q62 0 112.5 -31t86.5 -95t55.5 -162.5t19.5 -233.5q0 -76 -6 -158l-354 -47q4 -37 12.5 -70t23 -58.5t34.5 -40.5t49 -15q4 0 25.5 1t53 3.5t69 6.5t73.5 11l26 -188q-92 -32 -168.5 -42t-125.5 -10q-50 0 -89 15.5 t-69.5 43.5t-54 68t-41.5 88q-14 -37 -31.5 -65t-37 -49t-40.5 -35t-40 -23q-46 -22 -95 -24q-48 0 -90 21.5t-73 57.5t-48.5 82.5t-17.5 96.5zM215 268q0 -28 19 -51.5t47 -23.5q38 0 65 19.5t45 51.5t29.5 72t17.5 81t8 79.5t3 66.5q-16 -22 -31 -39t-28 -30 q-15 -15 -28 -27q-23 -19 -49 -42.5t-47.5 -49.5t-36 -53.5t-14.5 -53.5zM672 547l166 31v38q0 85 -13 131.5t-28 68.5q-18 26 -41 30q-29 -3 -46 -27t-25.5 -61.5t-10.5 -84.5t-2 -95v-31z" />
<glyph unicode="&#xe7;" horiz-adv-x="547" d="M37 522q0 52 2.5 115.5t12 128t29 125.5t53.5 108.5t85.5 76t124.5 28.5q32 0 62 -5t55 -12.5t43 -16t26 -15.5l-16 -234q-14 18 -34 28t-40 15t-37 6.5t-24 1.5q-30 0 -53.5 -26t-40 -74t-25 -116.5t-8.5 -153.5q0 -82 11.5 -149.5t40.5 -116t78 -77.5t124 -34l-6 -172 q-17 -2 -33.5 -3t-32.5 -1q-38 0 -71 4t-62 12l-16 -67q29 1 53 -8.5t41.5 -27t27 -42t9.5 -53.5q0 -30 -11 -55t-30.5 -43.5t-45 -30t-53.5 -15.5q-30 -5 -53 -3t-40 7q-19 5 -33 13v110q4 -5 14.5 -8.5t22.5 -6t23.5 -4t18.5 -1.5q23 0 40.5 8.5t17.5 36.5q0 13 -6.5 22 t-16.5 14.5t-22 8t-23 2.5q-14 0 -28.5 -1.5t-28.5 -6.5l67 182q-60 33 -97.5 87.5t-58.5 124t-28.5 150t-7.5 164.5z" />
<glyph unicode="&#xe8;" horiz-adv-x="664" d="M-13 1434q27 23 55 45q24 19 52.5 40.5t54.5 39.5l196 -340l-94 -69zM33 496q0 132 21 243.5t61 192.5t99 126.5t134 45.5q62 0 113 -31t87 -95t55.5 -162.5t19.5 -233.5q0 -38 -1.5 -77t-5.5 -81l-354 -47q4 -37 12.5 -70t23 -58.5t34.5 -40.5t49 -15q54 0 108 6.5 t113 15.5l27 -188q-93 -32 -169.5 -42t-125.5 -10q-61 0 -107 24t-79.5 64t-55.5 92.5t-35 110.5t-18.5 117.5t-5.5 112.5zM256 547l166 31v38q0 85 -13 131.5t-28 68.5q-18 26 -41 30q-29 -3 -46 -27t-25.5 -61.5t-10.5 -84.5t-2 -95v-31z" />
<glyph unicode="&#xe9;" horiz-adv-x="664" d="M33 496q0 132 21 243.5t61 192.5t99 126.5t134 45.5q62 0 113 -31t87 -95t55.5 -162.5t19.5 -233.5q0 -38 -1.5 -77t-5.5 -81l-354 -47q4 -37 12.5 -70t23 -58.5t34.5 -40.5t49 -15q54 0 108 6.5t113 15.5l27 -188q-93 -32 -169.5 -42t-125.5 -10q-61 0 -107 24t-79.5 64 t-55.5 92.5t-35 110.5t-18.5 117.5t-5.5 112.5zM256 547l166 31v38q0 85 -13 131.5t-28 68.5q-18 26 -41 30q-29 -3 -46 -27t-25.5 -61.5t-10.5 -84.5t-2 -95v-31zM309 1227l197 340q25 -18 53.5 -39.5t52.5 -40.5q28 -22 55 -45l-264 -284z" />
<glyph unicode="&#xea;" horiz-adv-x="664" d="M33 496q0 132 21 243.5t61 192.5t99 126.5t134 45.5q62 0 113 -31t87 -95t55.5 -162.5t19.5 -233.5q0 -38 -1.5 -77t-5.5 -81l-354 -47q4 -37 12.5 -70t23 -58.5t34.5 -40.5t49 -15q54 0 108 6.5t113 15.5l27 -188q-93 -32 -169.5 -42t-125.5 -10q-61 0 -107 24t-79.5 64 t-55.5 92.5t-35 110.5t-18.5 117.5t-5.5 112.5zM102 1207l152 336h161l140 -334l-156 -57l-78 235l-65 -241zM256 547l166 31v38q0 85 -13 131.5t-28 68.5q-18 26 -41 30q-29 -3 -46 -27t-25.5 -61.5t-10.5 -84.5t-2 -95v-31z" />
<glyph unicode="&#xeb;" horiz-adv-x="664" d="M33 496q0 132 21 243.5t61 192.5t99 126.5t134 45.5q62 0 113 -31t87 -95t55.5 -162.5t19.5 -233.5q0 -38 -1.5 -77t-5.5 -81l-354 -47q4 -37 12.5 -70t23 -58.5t34.5 -40.5t49 -15q54 0 108 6.5t113 15.5l27 -188q-93 -32 -169.5 -42t-125.5 -10q-61 0 -107 24t-79.5 64 t-55.5 92.5t-35 110.5t-18.5 117.5t-5.5 112.5zM88 1248q0 22 8.5 42t23 34t34 22.5t40.5 8.5q22 0 41.5 -8.5t34 -22.5t23 -34t8.5 -42q0 -21 -8.5 -40t-23 -33.5t-34 -22.5t-41.5 -8q-21 0 -40.5 8t-34 22.5t-23 33.5t-8.5 40zM256 547l166 31v38q0 85 -13 131.5t-28 68.5 q-18 26 -41 30q-29 -3 -46 -27t-25.5 -61.5t-10.5 -84.5t-2 -95v-31zM358 1248q0 22 8.5 42t23 34t34 22.5t41.5 8.5q21 0 40.5 -8.5t34 -22.5t23 -34t8.5 -42q0 -21 -8.5 -40t-23 -33.5t-34 -22.5t-40.5 -8q-22 0 -41.5 8t-34 22.5t-23 33.5t-8.5 40z" />
<glyph unicode="&#xec;" horiz-adv-x="358" d="M-132 1410q27 23 55 45q24 19 52.5 40.5t54.5 39.5l196 -340l-94 -69zM47 35q23 248 27.5 435.5t-0.5 316.5q-5 150 -19 260q57 -7 103 -9t79 -2q39 0 70 2q-9 -79 -14 -173.5t-7 -193.5t-1.5 -195.5t3.5 -180t7 -147.5t10 -97q-40 0 -83 -2q-37 -2 -83 -5t-92 -9z" />
<glyph unicode="&#xed;" horiz-adv-x="358" d="M47 35q23 248 27.5 435.5t-0.5 316.5q-5 150 -19 260q57 -7 103 -9t79 -2q39 0 70 2q-9 -79 -14 -173.5t-7 -193.5t-1.5 -195.5t3.5 -180t7 -147.5t10 -97q-40 0 -83 -2q-37 -2 -83 -5t-92 -9zM143 1174l197 340q25 -18 53.5 -39.5t52.5 -40.5q28 -22 55 -45l-264 -284z " />
<glyph unicode="&#xee;" horiz-adv-x="358" d="M-40 1172l152 336h161l140 -334l-156 -57l-78 235l-65 -241zM47 35q23 248 27.5 435.5t-0.5 316.5q-5 150 -19 260q57 -7 103 -9t79 -2q39 0 70 2q-9 -79 -14 -173.5t-7 -193.5t-1.5 -195.5t3.5 -180t7 -147.5t10 -97q-40 0 -83 -2q-37 -2 -83 -5t-92 -9z" />
<glyph unicode="&#xef;" horiz-adv-x="358" d="M-54 1223q0 22 8.5 42t23 34t34 22.5t40.5 8.5q22 0 41.5 -8.5t34 -22.5t23 -34t8.5 -42q0 -21 -8.5 -40t-23 -33.5t-34 -22.5t-41.5 -8q-21 0 -40.5 8t-34 22.5t-23 33.5t-8.5 40zM47 35q23 248 27.5 435.5t-0.5 316.5q-5 150 -19 260q57 -7 103 -9t79 -2q39 0 70 2 q-9 -79 -14 -173.5t-7 -193.5t-1.5 -195.5t3.5 -180t7 -147.5t10 -97q-40 0 -83 -2q-37 -2 -83 -5t-92 -9zM216 1223q0 22 8.5 42t23 34t34 22.5t41.5 8.5q21 0 40.5 -8.5t34 -22.5t23 -34t8.5 -42q0 -21 -8.5 -40t-23 -33.5t-34 -22.5t-40.5 -8q-22 0 -41.5 8t-34 22.5 t-23 33.5t-8.5 40z" />
<glyph unicode="&#xf0;" horiz-adv-x="686" d="M37 541q0 180 26.5 295t69.5 181.5t98 92t113 25.5q-11 24 -26 50t-33 52l-150 -76l-49 148l96 43q-17 15 -35 31.5t-38 31.5l110 121q19 -9 41 -23q19 -12 44 -31.5t54 -47.5l154 71l43 -133l-104 -53q53 -79 90 -167.5t60.5 -183.5t34.5 -194.5t11 -200.5 q0 -122 -11 -214t-31.5 -159.5t-49 -112t-63 -71.5t-74.5 -38t-82 -11t-80.5 9t-71.5 33t-60.5 65t-46.5 105t-29.5 153t-10.5 209zM248 526q0 -98 7.5 -162.5t21 -103t32 -54.5t39.5 -16q44 0 64 91t20 284q0 96 -7 157.5t-19 97.5t-29 49.5t-37 13.5q-23 0 -40 -19.5 t-28.5 -62.5t-17.5 -110.5t-6 -164.5z" />
<glyph unicode="&#xf1;" d="M61 43q3 91 4.5 162.5t2.5 131.5t1.5 112.5t0.5 103.5q0 46 -0.5 94.5t-1 104.5t-2 122.5t-3.5 147.5l234 6l-4 -102q27 51 58 81.5t61.5 47.5t59.5 22.5t52 5.5q62 0 102 -43t63.5 -114.5t32.5 -163.5t9 -191q0 -72 -3.5 -146t-8 -145.5t-10 -138t-9.5 -123.5l-235 -12 q22 161 31.5 326t9.5 346q0 61 -8 97.5t-21 56t-28 25t-29 5.5q-20 0 -37.5 -7t-32.5 -27t-27.5 -56t-21.5 -95t-13.5 -143.5t-4.5 -201.5v-87.5t0.5 -86.5t1 -72.5t2.5 -44.5zM102 1247q16 36 32 66t36.5 51.5t47 33.5t64.5 12q41 0 70 -13.5t52 -29.5t42.5 -29.5 t40.5 -13.5q28 0 49.5 16.5t37.5 36.5q18 24 32 54l86 -123q-22 -45 -51 -80q-25 -30 -61.5 -55t-82.5 -25q-30 1 -53.5 16t-45 33t-44 32.5t-49.5 14.5q-35 0 -56 -24.5t-47 -71.5z" />
<glyph unicode="&#xf2;" horiz-adv-x="684" d="M-15 1470q27 23 55 45q24 19 52.5 40.5t54.5 39.5l196 -340l-94 -69zM37 541q0 180 26.5 295t69.5 181.5t98 92t113 25.5q37 0 74.5 -7.5t71 -29.5t62.5 -61t50 -101.5t33 -151.5t12 -211t-11 -214t-31.5 -159.5t-49 -112t-63 -71.5t-74.5 -38t-82 -11t-80.5 9t-71.5 33 t-60.5 65t-46.5 105t-29.5 153t-10.5 209zM248 526q0 -98 7.5 -162.5t21 -103t32 -54.5t39.5 -16q44 0 64 91t20 284q0 96 -7 157.5t-19 97.5t-29 49.5t-37 13.5q-23 0 -40 -19.5t-28.5 -62.5t-17.5 -110.5t-6 -164.5z" />
<glyph unicode="&#xf3;" horiz-adv-x="684" d="M37 541q0 180 26.5 295t69.5 181.5t98 92t113 25.5q37 0 74.5 -7.5t71 -29.5t62.5 -61t50 -101.5t33 -151.5t12 -211t-11 -214t-31.5 -159.5t-49 -112t-63 -71.5t-74.5 -38t-82 -11t-80.5 9t-71.5 33t-60.5 65t-46.5 105t-29.5 153t-10.5 209zM248 526q0 -98 7.5 -162.5 t21 -103t32 -54.5t39.5 -16q44 0 64 91t20 284q0 96 -7 157.5t-19 97.5t-29 49.5t-37 13.5q-23 0 -40 -19.5t-28.5 -62.5t-17.5 -110.5t-6 -164.5zM348 1255l197 340q25 -18 53.5 -39.5t52.5 -40.5q28 -22 55 -45l-264 -284z" />
<glyph unicode="&#xf4;" horiz-adv-x="684" d="M37 541q0 180 26.5 295t69.5 181.5t98 92t113 25.5q37 0 74.5 -7.5t71 -29.5t62.5 -61t50 -101.5t33 -151.5t12 -211t-11 -214t-31.5 -159.5t-49 -112t-63 -71.5t-74.5 -38t-82 -11t-80.5 9t-71.5 33t-60.5 65t-46.5 105t-29.5 153t-10.5 209zM115 1245l152 336h161 l140 -334l-156 -57l-78 235l-65 -241zM248 526q0 -98 7.5 -162.5t21 -103t32 -54.5t39.5 -16q44 0 64 91t20 284q0 96 -7 157.5t-19 97.5t-29 49.5t-37 13.5q-23 0 -40 -19.5t-28.5 -62.5t-17.5 -110.5t-6 -164.5z" />
<glyph unicode="&#xf5;" horiz-adv-x="684" d="M37 541q0 180 26.5 295t69.5 181.5t98 92t113 25.5q37 0 74.5 -7.5t71 -29.5t62.5 -61t50 -101.5t33 -151.5t12 -211t-11 -214t-31.5 -159.5t-49 -112t-63 -71.5t-74.5 -38t-82 -11t-80.5 9t-71.5 33t-60.5 65t-46.5 105t-29.5 153t-10.5 209zM47 1281q16 36 32 66 t36.5 51.5t47 33.5t64.5 12q41 0 70 -13.5t52 -29.5t42.5 -29.5t40.5 -13.5q28 0 49.5 16.5t37.5 36.5q18 24 32 54l86 -123q-22 -45 -51 -80q-25 -30 -61.5 -55t-82.5 -25q-30 1 -53.5 16t-45 33t-44 32.5t-49.5 14.5q-35 0 -56 -24.5t-47 -71.5zM248 526q0 -98 7.5 -162.5 t21 -103t32 -54.5t39.5 -16q44 0 64 91t20 284q0 96 -7 157.5t-19 97.5t-29 49.5t-37 13.5q-23 0 -40 -19.5t-28.5 -62.5t-17.5 -110.5t-6 -164.5z" />
<glyph unicode="&#xf6;" horiz-adv-x="684" d="M37 541q0 180 26.5 295t69.5 181.5t98 92t113 25.5q37 0 74.5 -7.5t71 -29.5t62.5 -61t50 -101.5t33 -151.5t12 -211t-11 -214t-31.5 -159.5t-49 -112t-63 -71.5t-74.5 -38t-82 -11t-80.5 9t-71.5 33t-60.5 65t-46.5 105t-29.5 153t-10.5 209zM100 1277q0 22 8.5 42 t23 34t34 22.5t40.5 8.5q22 0 41.5 -8.5t34 -22.5t23 -34t8.5 -42q0 -21 -8.5 -40t-23 -33.5t-34 -22.5t-41.5 -8q-21 0 -40.5 8t-34 22.5t-23 33.5t-8.5 40zM248 526q0 -98 7.5 -162.5t21 -103t32 -54.5t39.5 -16q44 0 64 91t20 284q0 96 -7 157.5t-19 97.5t-29 49.5 t-37 13.5q-23 0 -40 -19.5t-28.5 -62.5t-17.5 -110.5t-6 -164.5zM370 1277q0 22 8.5 42t23 34t34 22.5t41.5 8.5q21 0 40.5 -8.5t34 -22.5t23 -34t8.5 -42q0 -21 -8.5 -40t-23 -33.5t-34 -22.5t-40.5 -8q-22 0 -41.5 8t-34 22.5t-23 33.5t-8.5 40z" />
<glyph unicode="&#xf7;" horiz-adv-x="637" d="M45 594v201l549 -15v-184zM199 403q0 25 9.5 46.5t25.5 37.5t37.5 25.5t45.5 9.5q25 0 46.5 -9.5t37.5 -25.5t25.5 -37.5t9.5 -46.5q0 -24 -9.5 -45.5t-25.5 -37.5t-37.5 -25.5t-46.5 -9.5q-24 0 -45.5 9.5t-37.5 25.5t-25.5 37.5t-9.5 45.5zM199 979q0 24 9.5 46 t25.5 38t37.5 25.5t45.5 9.5q25 0 46.5 -9.5t37.5 -25.5t25.5 -38t9.5 -46q0 -25 -9.5 -46.5t-25.5 -37.5t-37.5 -25.5t-46.5 -9.5q-24 0 -45.5 9.5t-37.5 25.5t-25.5 37.5t-9.5 46.5z" />
<glyph unicode="&#xf8;" horiz-adv-x="684" d="M37 541q0 180 26.5 295t69.5 181.5t98 92t113 25.5t111 -21q6 19 10.5 34.5t8.5 26.5q4 13 7 23l164 -16q-8 -22 -19 -51q-9 -25 -21 -60t-27 -78q32 -63 50.5 -164.5t18.5 -255.5q0 -122 -11 -214t-31.5 -159.5t-49 -112t-63 -71.5t-74.5 -38t-82 -11q-25 0 -48 3.5 t-46 11.5l-19 -72q-26 5 -53 9q-23 3 -52.5 6t-58.5 3h-20q17 35 34.5 76.5t37.5 89.5q-18 32 -32 75t-23 97.5t-14 123t-5 151.5zM248 471q35 103 68.5 204.5t62.5 190.5q-9 10 -18.5 13.5t-20.5 3.5q-23 0 -40 -19.5t-28.5 -62.5t-17.5 -110.5t-6 -164.5v-55zM309 205 q19 -15 39 -15q44 0 64 91t20 284v13q-32 -94 -63.5 -188.5t-59.5 -184.5z" />
<glyph unicode="&#xf9;" horiz-adv-x="743" d="M43 446q0 76 6 155t15 155.5t20 148t22 133.5l218 -4q-9 -59 -18.5 -128t-17 -141t-12 -144.5t-4.5 -137.5q0 -60 5 -112t16 -90.5t28.5 -60t43.5 -21.5q34 0 56 41t34.5 107.5t17 149.5t4.5 167q0 63 -2 120t-4 102q-3 52 -6 97l225 4q-8 -161 -11 -318.5t-3 -316.5 q0 -94 0.5 -186t3.5 -186l-199 -5v125q-30 -49 -67 -75t-70.5 -37.5t-57.5 -13t-28 -1.5q-63 13 -104.5 55.5t-66 106t-34.5 143.5t-10 168zM76 1371q27 23 55 45q24 19 52.5 40.5t54.5 39.5l196 -340l-94 -69z" />
<glyph unicode="&#xfa;" horiz-adv-x="743" d="M43 446q0 76 6 155t15 155.5t20 148t22 133.5l218 -4q-9 -59 -18.5 -128t-17 -141t-12 -144.5t-4.5 -137.5q0 -60 5 -112t16 -90.5t28.5 -60t43.5 -21.5q34 0 56 41t34.5 107.5t17 149.5t4.5 167q0 63 -2 120t-4 102q-3 52 -6 97l225 4q-8 -161 -11 -318.5t-3 -316.5 q0 -94 0.5 -186t3.5 -186l-199 -5v125q-30 -49 -67 -75t-70.5 -37.5t-57.5 -13t-28 -1.5q-63 13 -104.5 55.5t-66 106t-34.5 143.5t-10 168zM344 1131l197 340q25 -18 53.5 -39.5t52.5 -40.5q28 -22 55 -45l-264 -284z" />
<glyph unicode="&#xfb;" horiz-adv-x="743" d="M43 446q0 76 6 155t15 155.5t20 148t22 133.5l218 -4q-9 -59 -18.5 -128t-17 -141t-12 -144.5t-4.5 -137.5q0 -60 5 -112t16 -90.5t28.5 -60t43.5 -21.5q34 0 56 41t34.5 107.5t17 149.5t4.5 167q0 63 -2 120t-4 102q-3 52 -6 97l225 4q-8 -161 -11 -318.5t-3 -316.5 q0 -94 0.5 -186t3.5 -186l-199 -5v125q-30 -49 -67 -75t-70.5 -37.5t-57.5 -13t-28 -1.5q-63 13 -104.5 55.5t-66 106t-34.5 143.5t-10 168zM162 1154l152 336h161l140 -334l-156 -57l-78 235l-65 -241z" />
<glyph unicode="&#xfc;" horiz-adv-x="743" d="M43 446q0 76 6 155t15 155.5t20 148t22 133.5l218 -4q-9 -59 -18.5 -128t-17 -141t-12 -144.5t-4.5 -137.5q0 -60 5 -112t16 -90.5t28.5 -60t43.5 -21.5q34 0 56 41t34.5 107.5t17 149.5t4.5 167q0 63 -2 120t-4 102q-3 52 -6 97l225 4q-8 -161 -11 -318.5t-3 -316.5 q0 -94 0.5 -186t3.5 -186l-199 -5v125q-30 -49 -67 -75t-70.5 -37.5t-57.5 -13t-28 -1.5q-63 13 -104.5 55.5t-66 106t-34.5 143.5t-10 168zM152 1199q0 22 8.5 42t23 34t34 22.5t40.5 8.5q22 0 41.5 -8.5t34 -22.5t23 -34t8.5 -42q0 -21 -8.5 -40t-23 -33.5t-34 -22.5 t-41.5 -8q-21 0 -40.5 8t-34 22.5t-23 33.5t-8.5 40zM422 1199q0 22 8.5 42t23 34t34 22.5t41.5 8.5q21 0 40.5 -8.5t34 -22.5t23 -34t8.5 -42q0 -21 -8.5 -40t-23 -33.5t-34 -22.5t-40.5 -8q-22 0 -41.5 8t-34 22.5t-23 33.5t-8.5 40z" />
<glyph unicode="&#xfd;" horiz-adv-x="745" d="M45 481.5q0 -0.5 1 10t3 39.5t6 91t9.5 163.5t13.5 258.5l231 -20q3 0 -3.5 -38.5t-15 -109t-16.5 -169.5t-8 -220q0 -72 7.5 -122.5t20.5 -82.5t31.5 -46.5t41.5 -14.5q40 0 66 62.5t26 199.5q0 9 -0.5 20.5t-1 34t-2.5 58.5t-5.5 95.5t-8 145t-11.5 205.5l236 -6 q9 -216 14.5 -434.5t5.5 -445.5q0 -144 -12 -241t-48 -156.5t-103 -85t-177 -25.5q-56 0 -129 5t-166 17l8 219q73 -5 130 -8l95 -5q45 -3 78 -3q24 0 41 5.5t27.5 20t15.5 40.5t5 67v26.5t-2 30.5q-16 -24 -36.5 -38t-40.5 -22t-38.5 -10.5t-30.5 -2.5q-81 0 -131 33 t-77.5 90t-37.5 133.5t-10 163.5q0 39 -0.5 52.5t-1 16.5t-0.5 2.5zM293 1168l197 340q25 -18 53.5 -39.5t52.5 -40.5q28 -22 55 -45l-264 -284z" />
<glyph unicode="&#xfe;" horiz-adv-x="735" d="M68 -336v1811h192v-486q12 23 27.5 44.5t33.5 37.5t39 25.5t46 9.5q65 0 112.5 -33t80 -86.5t52 -122.5t30 -141.5t14 -141.5t3.5 -124q0 -125 -20 -216.5t-54.5 -151.5t-79.5 -89t-95 -29q-30 3 -61 14q-26 10 -57 31t-59 60l21 -412h-225zM258 602q0 -28 0.5 -68.5 t3.5 -85.5t10.5 -90t21 -80.5t35 -58t52.5 -22.5q34 0 54.5 22t31 58.5t13.5 83.5t3 96q0 34 -1.5 80.5t-5.5 96.5t-12 99t-21.5 87.5t-33 62.5t-47.5 24q-27 0 -47 -24.5t-32.5 -66.5t-18.5 -97.5t-6 -116.5z" />
<glyph unicode="&#xff;" horiz-adv-x="745" d="M45 481.5q0 -0.5 1 10t3 39.5t6 91t9.5 163.5t13.5 258.5l231 -20q3 0 -3.5 -38.5t-15 -109t-16.5 -169.5t-8 -220q0 -72 7.5 -122.5t20.5 -82.5t31.5 -46.5t41.5 -14.5q40 0 66 62.5t26 199.5q0 9 -0.5 20.5t-1 34t-2.5 58.5t-5.5 95.5t-8 145t-11.5 205.5l236 -6 q9 -216 14.5 -434.5t5.5 -445.5q0 -144 -12 -241t-48 -156.5t-103 -85t-177 -25.5q-56 0 -129 5t-166 17l8 219q73 -5 130 -8l95 -5q45 -3 78 -3q24 0 41 5.5t27.5 20t15.5 40.5t5 67v26.5t-2 30.5q-16 -24 -36.5 -38t-40.5 -22t-38.5 -10.5t-30.5 -2.5q-81 0 -131 33 t-77.5 90t-37.5 133.5t-10 163.5q0 39 -0.5 52.5t-1 16.5t-0.5 2.5zM125 1229q0 22 8.5 42t23 34t34 22.5t40.5 8.5q22 0 41.5 -8.5t34 -22.5t23 -34t8.5 -42q0 -21 -8.5 -40t-23 -33.5t-34 -22.5t-41.5 -8q-21 0 -40.5 8t-34 22.5t-23 33.5t-8.5 40zM395 1229q0 22 8.5 42 t23 34t34 22.5t41.5 8.5q21 0 40.5 -8.5t34 -22.5t23 -34t8.5 -42q0 -21 -8.5 -40t-23 -33.5t-34 -22.5t-40.5 -8q-22 0 -41.5 8t-34 22.5t-23 33.5t-8.5 40z" />
<glyph unicode="&#x152;" horiz-adv-x="1096" d="M41 700q0 207 27.5 351.5t75.5 235t112 131t137 40.5q42 0 81.5 -12.5t74.5 -40.5q-2 8 -2 15.5v15.5q68 -5 130 -7t122.5 -1.5t122.5 3.5t131 9v-230q-73 14 -143.5 19.5t-139.5 3.5q-9 -125 -12.5 -249t-5.5 -249q101 -6 202 0v-200q-49 2 -100 3.5t-102 -1.5l-4 -357 q81 2 158.5 8t164.5 19v-209q-138 6 -263.5 4.5t-260.5 -10.5v24q-68 -51 -154 -51q-73 0 -137 37.5t-112 123.5t-75.5 227t-27.5 347zM264 700q0 -154 10 -258.5t27.5 -168t41 -90.5t50.5 -27q26 0 49 28.5t40.5 93t27.5 168.5t10 254q0 157 -10 265t-27.5 175.5 t-40.5 97.5t-49 30q-27 0 -50.5 -30.5t-41 -98t-27.5 -176t-10 -263.5z" />
<glyph unicode="&#x153;" horiz-adv-x="1061" d="M37 541q0 180 26.5 295t69.5 181.5t98 92t113 25.5q30 0 60 -5t58.5 -18.5t54.5 -37t48 -60.5q35 43 80.5 66.5t99.5 23.5q62 0 113 -31t87 -95t55.5 -162.5t19.5 -233.5q0 -76 -6 -158l-355 -47q5 -37 13.5 -70t22.5 -58.5t34 -40.5t49 -15q4 0 25.5 1t53 3.5t69 6.5 t73.5 11l27 -188q-93 -32 -169 -42t-126 -10q-59 0 -104 19t-86 72q-42 -54 -94 -76.5t-111 -22.5q-42 0 -80.5 9t-71.5 33t-60.5 65t-46.5 105t-29.5 153t-10.5 209zM248 526q0 -98 7.5 -162.5t21 -103t32 -54.5t39.5 -16q18 0 33.5 23t26 64t16.5 99t6 128q0 187 -18 283 t-72 96q-23 0 -40 -19.5t-28.5 -62.5t-17.5 -110.5t-6 -164.5zM653 547l166 31v38q0 85 -13 131.5t-28 68.5q-18 26 -41 30q-29 -3 -46 -27t-25.5 -61.5t-10.5 -84.5t-2 -95v-31z" />
<glyph unicode="&#x178;" horiz-adv-x="713" d="M8 1415l250 21q4 -82 13.5 -173.5t22.5 -186.5t29 -192t33 -190q19 95 37.5 193.5t34.5 194.5t29.5 187t23.5 171l246 -6q-80 -254 -149.5 -512.5t-131.5 -499.5v-62q0 -50 1.5 -94.5t3.5 -88t5.5 -89t8.5 -96.5h-240q8 62 14 115.5t9.5 105.5t5.5 107t2 120 q-28 115 -58.5 239t-62.5 249t-64 248.5t-63 238.5zM125 1597q0 22 8.5 42t23 34t34 22.5t40.5 8.5q22 0 41.5 -8.5t34 -22.5t23 -34t8.5 -42q0 -21 -8.5 -40t-23 -33.5t-34 -22.5t-41.5 -8q-21 0 -40.5 8t-34 22.5t-23 33.5t-8.5 40zM395 1597q0 22 8.5 42t23 34t34 22.5 t41.5 8.5q21 0 40.5 -8.5t34 -22.5t23 -34t8.5 -42q0 -21 -8.5 -40t-23 -33.5t-34 -22.5t-40.5 -8q-22 0 -41.5 8t-34 22.5t-23 33.5t-8.5 40z" />
<glyph unicode="&#x2c6;" horiz-adv-x="453" d="M0 1245l152 336h161l140 -334l-156 -57l-78 235l-65 -241z" />
<glyph unicode="&#x2dc;" horiz-adv-x="590" d="M0 1303q16 36 32 66t36.5 51.5t47 33.5t64.5 12q41 0 70 -13.5t52 -29.5t42.5 -29.5t40.5 -13.5q28 0 49.5 16.5t37.5 36.5q18 24 32 54l86 -123q-22 -45 -51 -80q-25 -30 -61.5 -55t-82.5 -25q-30 1 -53.5 16t-45 33t-44 32.5t-49.5 14.5q-35 0 -56 -24.5t-47 -71.5z " />
<glyph unicode="&#x2000;" horiz-adv-x="958" />
<glyph unicode="&#x2001;" horiz-adv-x="1917" />
<glyph unicode="&#x2002;" horiz-adv-x="958" />
<glyph unicode="&#x2003;" horiz-adv-x="1917" />
<glyph unicode="&#x2004;" horiz-adv-x="639" />
<glyph unicode="&#x2005;" horiz-adv-x="479" />
<glyph unicode="&#x2006;" horiz-adv-x="319" />
<glyph unicode="&#x2007;" horiz-adv-x="319" />
<glyph unicode="&#x2008;" horiz-adv-x="239" />
<glyph unicode="&#x2009;" horiz-adv-x="383" />
<glyph unicode="&#x200a;" horiz-adv-x="106" />
<glyph unicode="&#x2010;" horiz-adv-x="662" d="M57 594v201l549 -15v-184z" />
<glyph unicode="&#x2011;" horiz-adv-x="662" d="M57 594v201l549 -15v-184z" />
<glyph unicode="&#x2012;" horiz-adv-x="662" d="M57 594v201l549 -15v-184z" />
<glyph unicode="&#x2013;" horiz-adv-x="934" d="M57 594v201l822 -15v-184z" />
<glyph unicode="&#x2014;" horiz-adv-x="1339" d="M57 594v201l1227 -15v-184z" />
<glyph unicode="&#x2018;" horiz-adv-x="289" d="M29 1196q1 34 8 62.5t20.5 54t33 49t44.5 49.5l74 -35q-8 -8 -15 -19q-6 -9 -13 -23t-13 -31q42 -8 70 -41t28 -76q0 -25 -9.5 -46.5t-25.5 -37.5t-37.5 -25.5t-46.5 -9.5q-24 0 -45.5 9.5t-37.5 26.5t-25.5 40.5t-9.5 52.5z" />
<glyph unicode="&#x2019;" horiz-adv-x="287" d="M23 1292q0 25 9.5 46.5t25.5 37.5t37.5 25.5t45.5 9.5q25 0 46.5 -9.5t37.5 -25.5t25.5 -37.5t9.5 -46.5q0 -37 -7 -67t-20.5 -56t-33 -51t-45.5 -51l-74 35q7 8 14 19q13 20 25 55q-42 8 -69 39.5t-27 76.5z" />
<glyph unicode="&#x201a;" horiz-adv-x="305" d="M33 80q0 24 9.5 46t25.5 38t37.5 25.5t46.5 9.5q24 0 45.5 -9.5t37.5 -25.5t25.5 -38t9.5 -46q0 -37 -7 -67t-20.5 -56.5t-33 -51t-45.5 -50.5l-74 34q7 8 14 19q6 10 13 23.5t12 31.5q-42 8 -69 40t-27 77z" />
<glyph unicode="&#x201c;" horiz-adv-x="582" d="M29 1196q1 34 8 62.5t20.5 54t33 49t44.5 49.5l74 -35q-8 -8 -15 -19q-6 -9 -13 -23t-13 -31q42 -8 70 -41t28 -76q0 -25 -9.5 -46.5t-25.5 -37.5t-37.5 -25.5t-46.5 -9.5q-24 0 -45.5 9.5t-37.5 26.5t-25.5 40.5t-9.5 52.5zM322 1186q0 37 6.5 67t20 56t33.5 51t46 51 l74 -35q-8 -8 -15 -19q-6 -9 -13 -23t-13 -31q42 -8 70 -41t28 -76q0 -25 -9.5 -46.5t-25.5 -37.5t-37.5 -25.5t-46.5 -9.5q-24 0 -45.5 9.5t-37.5 25.5t-25.5 37.5t-9.5 46.5z" />
<glyph unicode="&#x201d;" horiz-adv-x="580" d="M23 1292q0 25 9.5 46.5t25.5 37.5t37.5 25.5t45.5 9.5q25 0 46.5 -9.5t37.5 -25.5t25.5 -37.5t9.5 -46.5q-1 -38 -8 -68.5t-20.5 -57t-33 -50.5t-44.5 -49l-74 35q7 8 14 19q13 20 25 55q-42 8 -69 39.5t-27 76.5zM315 1292q0 25 9.5 46.5t25.5 37.5t38 25.5t46 9.5 q25 0 46.5 -9.5t37.5 -25.5t25.5 -37.5t9.5 -46.5q0 -37 -7 -67t-20.5 -56t-33.5 -51t-46 -51l-73 35q7 8 14 19q13 20 25 55q-42 8 -69.5 39.5t-27.5 76.5z" />
<glyph unicode="&#x201e;" horiz-adv-x="598" d="M33 80q0 24 9.5 46t25.5 38t37.5 25.5t46.5 9.5q24 0 45.5 -9.5t37.5 -25.5t25.5 -38t9.5 -46q-1 -39 -8 -69.5t-20.5 -56.5t-33 -50t-44.5 -49l-74 34q7 8 14 19q6 10 13 23.5t12 31.5q-42 8 -69 40t-27 77zM326 80q0 24 9.5 46t25.5 38t37.5 25.5t45.5 9.5 q25 0 46.5 -9.5t37.5 -25.5t25.5 -38t9.5 -46q0 -37 -7 -67t-20.5 -56.5t-33 -51t-45.5 -50.5l-74 34q7 8 14 19q6 10 13 23.5t12 31.5q-42 8 -69 40t-27 77z" />
<glyph unicode="&#x2022;" horiz-adv-x="555" d="M84 733q0 41 15.5 76.5t42 62t62.5 41.5t77 15q39 0 73.5 -15t60.5 -41.5t41 -62t15 -76.5q0 -39 -15 -74t-41 -61t-60.5 -41.5t-73.5 -15.5q-41 0 -77 15.5t-62.5 41.5t-42 61t-15.5 74z" />
<glyph unicode="&#x2026;" horiz-adv-x="909" d="M33 82q0 24 9.5 46t25.5 38t37.5 25.5t46.5 9.5q24 0 45.5 -9.5t37.5 -25.5t25.5 -38t9.5 -46q0 -25 -9.5 -46.5t-25.5 -37.5t-37.5 -25.5t-45.5 -9.5q-25 0 -46.5 9.5t-37.5 25.5t-25.5 37.5t-9.5 46.5zM336 82q0 24 9.5 46t25.5 38t37.5 25.5t46.5 9.5q24 0 45.5 -9.5 t37.5 -25.5t25.5 -38t9.5 -46q0 -25 -9.5 -46.5t-25.5 -37.5t-37.5 -25.5t-45.5 -9.5q-25 0 -46.5 9.5t-37.5 25.5t-25.5 37.5t-9.5 46.5zM639 82q0 24 9.5 46t25.5 38t37.5 25.5t46.5 9.5q24 0 46 -9.5t38 -25.5t25.5 -38t9.5 -46q0 -25 -9.5 -46.5t-25.5 -37.5t-38 -25.5 t-46 -9.5q-25 0 -46.5 9.5t-37.5 25.5t-25.5 37.5t-9.5 46.5z" />
<glyph unicode="&#x202f;" horiz-adv-x="383" />
<glyph unicode="&#x2039;" horiz-adv-x="512" d="M35 387v205l350 233l84 -196l-303 -127l303 -125l-51 -187z" />
<glyph unicode="&#x203a;" horiz-adv-x="512" d="M43 377l301 125l-301 127l84 196l350 -233v-205l-383 -197z" />
<glyph unicode="&#x205f;" horiz-adv-x="479" />
<glyph unicode="&#x20ac;" horiz-adv-x="817" d="M27 522l32 148l136 4v49v25h-105l35 145l78 2q12 116 38 203t60.5 149t75 102.5t80.5 64t77.5 33t65.5 9.5q29 -1 57 -6q24 -5 50.5 -15t46.5 -28l-21 -201q-28 14 -52 20.5t-46 6.5q-50 0 -85.5 -30.5t-60 -78.5t-39.5 -106.5t-24 -114.5l199 6l-52 -161h-163v-39 q-1 -5 -1 -9v-9t1 -11l149 4l-51 -162h-84q8 -56 23.5 -115t41 -107t62.5 -79t88 -31q47 0 109 33l36 -198q-38 -18 -76.5 -27.5t-68.5 -14.5q-36 -5 -68 -6q-47 0 -103.5 23t-109.5 83.5t-95 166.5t-60 272h-176z" />
<glyph unicode="&#x2122;" horiz-adv-x="903" d="M74 1317v84q26 -1 62 -1.5t73.5 -1t73 -0.5t61.5 1l-4 -80h-88q-4 -58 -5 -121.5t-0.5 -128t2.5 -127t5 -117.5h-102q3 55 6.5 117.5t6 127t3.5 128t0 121.5q-28 0 -52 -1t-42 -1zM375 823q7 34 12 77.5t8 90.5t4 95.5t1 93.5q0 106 -5 219q26 -4 55 -5.5t53 -1.5 q28 0 56 1l66 -392q11 63 19 132.5t14 128.5q7 69 12 135q23 -1 50 -2q23 -1 54 -0.5t66 2.5q-8 -149 -7.5 -256.5t3.5 -176.5q4 -82 10 -135l-115 -2q2 72 4 146q2 63 3 135.5t1 134.5q-8 -38 -18 -87t-19.5 -102.5t-18 -109.5t-13.5 -108l-95 2l-75 413v-112t0.5 -123.5 t2 -111t5.5 -75.5z" />
<glyph unicode="&#xe000;" horiz-adv-x="1045" d="M0 0v1045h1045v-1045h-1045z" />
</font>
</defs>
</svg>
