<?xml version="1.0" standalone="no"?>
<!DOCTYPE svg PUBLIC "-//W3C//DTD SVG 1.1//EN" "http://www.w3.org/Graphics/SVG/1.1/DTD/svg11.dtd" >
<svg xmlns="http://www.w3.org/2000/svg">
<metadata></metadata>
<defs>
<font id="chunkfiveroman" horiz-adv-x="1292" >
<font-face units-per-em="2048" ascent="1536" descent="-512" />
<missing-glyph horiz-adv-x="512" />
<glyph horiz-adv-x="2048" />
<glyph horiz-adv-x="2048" />
<glyph unicode="&#xd;" horiz-adv-x="2048" />
<glyph unicode=" "  horiz-adv-x="512" />
<glyph unicode="&#x09;" horiz-adv-x="512" />
<glyph unicode="&#xa0;" horiz-adv-x="512" />
<glyph unicode="!" horiz-adv-x="630" d="M57 209q0 83 65 150t169 67q106 0 175 -63.5t69 -153.5q0 -89 -67 -150t-177 -61q-97 0 -165.5 64.5t-68.5 146.5zM66 1042v390h489v-390l-109 -516h-270z" />
<glyph unicode="&#x22;" horiz-adv-x="1085" d="M115 1436h405l-74 -613h-256zM565 1436h406l-74 -613h-256z" />
<glyph unicode="#" horiz-adv-x="1331" d="M47 250l47 272h232l24 137h-231l47 273h231l37 213h273l-37 -213h137l37 213h272l-37 -213h191l-47 -273h-191l-24 -137h190l-47 -272h-190l-37 -209h-273l37 209h-137l-37 -209h-272l37 209h-232zM598 522h137l25 137h-137z" />
<glyph unicode="$" horiz-adv-x="1454" d="M51 0v516h381q0 -49 19 -86.5t46.5 -59t65 -35t67 -18.5t60.5 -6q43 0 78.5 7t65.5 31.5t30 64.5q0 25 -27 45.5t-72.5 36.5t-104.5 32t-124 36.5t-130 45.5t-124 63t-104.5 85.5t-72.5 116.5t-27 153q0 87 31.5 161.5t82 124.5t115 86t130.5 52t128 16q45 0 92 -6v152 h131v-182q144 -55 205 -172l21 172h352v-514h-371q0 110 -75 173.5t-187 63.5q-51 0 -96 -29t-45 -79q0 -33 27.5 -61.5t74.5 -50t108 -42t128.5 -43.5t134.5 -49.5t128 -64t108 -82.5t74.5 -109.5t27.5 -141.5q0 -92 -33.5 -167t-87.5 -124t-126 -82t-146 -47t-150 -14 q-26 0 -72 4v-131h-131v162q-132 46 -225 154l-22 -158h-359z" />
<glyph unicode="%" horiz-adv-x="1228" d="M117 1051q0 121 60 196.5t155 75.5q113 0 169 -75.5t56 -211.5q0 -127 -56.5 -198.5t-158.5 -71.5q-103 0 -164 72.5t-61 212.5zM270 1051q0 -73 22.5 -119.5t49.5 -46.5q26 0 41.5 41.5t15.5 109.5q0 75 -18 119.5t-51 44.5q-21 0 -40.5 -42.5t-19.5 -106.5zM287 6h235 l424 1311h-235zM670 289q0 121 60 196.5t155 75.5q113 0 169 -75.5t56 -211.5q0 -127 -56.5 -198.5t-158.5 -71.5q-103 0 -164 72.5t-61 212.5zM823 289q0 -73 22.5 -119.5t49.5 -46.5q26 0 41.5 41.5t15.5 109.5q0 75 -18 119.5t-51 44.5q-21 0 -40.5 -42.5t-19.5 -106.5z " />
<glyph unicode="&#x26;" horiz-adv-x="1433" d="M109 344q0 -95 32.5 -169t87.5 -117.5t124.5 -69.5t145.5 -30t149 5t136.5 32.5t106.5 55.5q66 -49 129.5 -61t109.5 7t82 52.5t54 71t18 67.5q-104 -60 -207 78q49 66 68 152q19 -3 85.5 -0.5t76.5 2.5l18 309h-338v-30q0 -113 -7.5 -160.5t-43.5 -106.5 q-72 76 -178 258q99 60 162.5 136t85.5 149.5t9.5 144.5t-56 124.5t-120.5 86.5t-175 33q-124 0 -222 -78t-120 -204t75 -285q-92 -61 -131 -95q-156 -143 -157 -358zM402 244q-61 83 6 196q36 62 110 125q114 -219 221 -340q-83 -68 -193 -56q-96 11 -144 75zM580.5 1084 q0.5 44 28 76t81.5 32q73 0 90 -54q18 -57 -38 -127q-40 -50 -107 -87q-25 27 -40 71.5t-14.5 88.5z" />
<glyph unicode="'" horiz-adv-x="559" d="M74 1436h405l-73 -613h-256z" />
<glyph unicode="(" horiz-adv-x="794" d="M51 639q0 138 34 278t86 251.5t118.5 213.5t126.5 170.5t116 116.5l211 -217q-35 -43 -49.5 -60.5t-55 -74t-62 -97.5t-54.5 -112t-50 -136.5t-30.5 -153.5t-13.5 -179q0 -131 22.5 -251t52.5 -203t78 -166t81.5 -127.5t80.5 -100.5l-211 -219q-69 63 -135 143 t-129.5 185.5t-111 219t-76.5 249t-29 270.5z" />
<glyph unicode=")" horiz-adv-x="794" d="M51 -211q47 56 80.5 100t82 127.5t78.5 166.5t52.5 203t22.5 251q0 72 -8.5 141.5t-19.5 125t-33 115.5t-37.5 99t-46 90.5t-45 75.5t-48 67.5t-41 53t-37.5 45.5l211 217q56 -48 116 -116.5t126.5 -170.5t118.5 -213.5t86 -251.5t34 -278q0 -135 -29 -270.5t-76.5 -249 t-111 -219t-129.5 -185.5t-135 -143z" />
<glyph unicode="*" horiz-adv-x="1228" d="M178 1016l84 -39l193 -43l-176 -182v-58l170 -129l55 51l108 197l103 -184l63 -66l172 131l-18 74l-158 164l201 41l76 43l-66 209l-86 -4l-184 -97l45 238l-39 63h-211l-39 -61l45 -238l-182 95l-90 4z" />
<glyph unicode="+" d="M86 352v273h416v415h272v-415h416v-273h-416v-415h-272v415h-416z" />
<glyph unicode="," horiz-adv-x="557" d="M-12 -264q115 144 161.5 293.5t32.5 371.5l373 -98q6 -194 -82.5 -375.5t-249.5 -324.5z" />
<glyph unicode="-" horiz-adv-x="790" d="M96 352v273h594v-273h-594z" />
<glyph unicode="." horiz-adv-x="528" d="M31 213q0 87 63 160t168 73t170.5 -73.5t65.5 -159.5q0 -96 -62 -158.5t-174 -62.5q-98 0 -164.5 68t-66.5 153z" />
<glyph unicode="/" horiz-adv-x="823" d="M-102 -317h331l594 1814h-331z" />
<glyph unicode="0" horiz-adv-x="1226" d="M31 723q0 214 73 382t204.5 260.5t299.5 92.5q148 0 260.5 -53t184 -152t107.5 -235.5t36 -308.5q0 -344 -151 -539t-427 -195q-130 0 -236.5 46.5t-185 137.5t-122 235t-43.5 329zM436 723q0 -187 57.5 -308.5t124.5 -121.5q72 0 119 115.5t47 300.5q0 182 -51 300.5 t-127 118.5q-62 2 -116 -113t-54 -292z" />
<glyph unicode="1" horiz-adv-x="1015" d="M51 1163q8 4 37.5 18t38.5 18.5t35 18.5t38 22.5t36 24.5t41 31t40 36t45.5 46t47.5 54h364v-1160h191v-272h-820v272h205v760l-205 -96z" />
<glyph unicode="2" horiz-adv-x="1208" d="M51 0v297q83 135 140.5 201.5t158.5 146.5q43 38 116 88.5t122 84t87 79.5t38 90q0 135 -172 135q-39 0 -75.5 -13t-71.5 -41.5t-53.5 -46.5t-51.5 -54l-221 233q219 254 532 254q136 0 246.5 -53.5t175.5 -156.5t65 -238q0 -70 -14.5 -126t-36.5 -96t-68.5 -83.5 t-88.5 -73.5t-119 -80q-85 -54 -180 -136t-127 -139h360v164h344v-436h-1106z" />
<glyph unicode="3" horiz-adv-x="1105" d="M31 205l209 217q65 -65 127 -99t143 -34q87 0 135.5 40.5t48.5 116.5q0 150 -170 150h-153v244h149q76 0 125 37t49 104q0 78 -54 120t-126 42q-58 0 -122 -33t-118 -90l-198 240q66 72 188.5 133t249.5 61q247 0 384.5 -117.5t137.5 -316.5q0 -49 -15 -92t-42 -76.5 t-46.5 -52t-47.5 -39.5q190 -135 190 -336q0 -88 -32.5 -163t-87.5 -127t-128 -89t-154 -54.5t-165 -17.5q-141 0 -277.5 69.5t-199.5 162.5z" />
<glyph unicode="4" horiz-adv-x="1196" d="M20 403v293l590 736h424v-807h109v-222h-109v-133h111v-270h-664v270h129v133h-590zM307 625h303v379z" />
<glyph unicode="5" horiz-adv-x="1181" d="M31 221l223 232q70 -72 137.5 -112t149.5 -40q102 0 163.5 57.5t61.5 147.5q0 82 -61 140.5t-148 58.5q-44 0 -82.5 -16t-60.5 -33.5t-49 -45.5l-263 117l125 705h811v-306h-551l-34 -198q74 49 221 49q91 0 176 -32t152.5 -91t108 -153t40.5 -209q0 -100 -35 -185.5 t-95 -146t-138.5 -103.5t-166 -63.5t-177.5 -20.5q-150 0 -296 74.5t-212 173.5z" />
<glyph unicode="6" horiz-adv-x="1189" d="M33 623q-1 65 3 131t19.5 149.5t41.5 156.5t73 145.5t108.5 125t153.5 86.5t203 37q108 3 252 -43t231 -119l-139 -266q-53 31 -84 47.5t-94.5 36.5t-120.5 20q-110 -3 -181 -81t-87 -197q42 42 115.5 71.5t152.5 32.5q130 5 239.5 -50.5t174.5 -162.5t65 -243 q0 -138 -61.5 -253t-184 -187.5t-284.5 -77.5q-256 -8 -421.5 165t-174.5 476zM416 545q0 -40 11.5 -81t34 -78t60 -60t84.5 -23q78 0 133 51.5t54 124.5q-2 72 -42 128t-124 55q-64 -3 -121 -39.5t-90 -77.5z" />
<glyph unicode="7" horiz-adv-x="1159" d="M31 1026v406h1108v-273l-551 -1159h-443l549 1159h-336v-133h-327z" />
<glyph unicode="8" horiz-adv-x="1144" d="M31 420q0 103 61.5 206.5t159.5 153.5q-73 44 -113.5 119.5t-40.5 153.5q0 175 131.5 289t356.5 114q231 0 360 -113t129 -290q0 -96 -49.5 -170t-122.5 -109q100 -49 155.5 -147t55.5 -207q0 -193 -149 -320t-392 -127q-249 0 -395.5 126.5t-146.5 320.5zM385 432 q0 -71 56 -119.5t134 -48.5q80 0 134 43.5t55 124.5q0 50 -26.5 87.5t-69.5 56.5t-83 27.5t-81 10.5q-49 -28 -84 -78t-35 -104zM434 1069q0 -40 21 -68t56 -41.5t65 -19t61 -6.5q42 20 70 56t28 79q0 55 -45 92t-108 37q-60 0 -104 -39t-44 -90z" />
<glyph unicode="9" horiz-adv-x="1202" d="M31 936q0 138 61.5 253t184 187.5t284.5 77.5q126 4 235 -38.5t190.5 -124t130 -204.5t52.5 -274q2 -73 -3 -143.5t-21.5 -154t-44 -155.5t-75.5 -141.5t-111 -119.5t-155 -82t-204 -35q-109 -3 -252.5 42.5t-230.5 118.5l139 267q55 -32 84.5 -48t93.5 -36.5t121 -20.5 q117 3 184 75t66 204q-99 -99 -250 -105q-130 -5 -239.5 50.5t-174.5 163t-65 243.5zM397 956q2 -72 42 -127.5t124 -54.5q102 4 193 117q0 41 -9 81t-27.5 77.5t-53.5 60.5t-82 23q-78 0 -133 -52t-54 -125z" />
<glyph unicode=":" horiz-adv-x="520" d="M31 201q0 85 62 157t165 72t167 -72t64 -157q0 -92 -64.5 -154.5t-166.5 -62.5q-96 0 -161.5 67t-65.5 150zM31 823q0 85 62 157.5t165 72.5t167 -72.5t64 -157.5q0 -94 -62.5 -155.5t-168.5 -61.5q-93 0 -160 67.5t-67 149.5z" />
<glyph unicode=";" horiz-adv-x="618" d="M10 -264l236 -133q161 143 249.5 324.5t82.5 375.5l-373 98q14 -222 -33 -371.5t-162 -293.5zM121 788q0 87 63 160.5t168 73.5t170.5 -74t65.5 -160q0 -95 -64 -158t-172 -63q-94 0 -162.5 68.5t-68.5 152.5z" />
<glyph unicode="&#x3c;" horiz-adv-x="1064" d="M143 430l660 -307l78 213l-506 227l506 232l-125 229l-613 -307v-287z" />
<glyph unicode="=" horiz-adv-x="1028" d="M90 106v273h844v-273h-844zM90 559v272h844v-272h-844z" />
<glyph unicode="&#x3e;" horiz-adv-x="1064" d="M143 336l506 227l-506 232l125 229l613 -307v-287l-660 -307z" />
<glyph unicode="?" horiz-adv-x="1064" d="M4 1200q109 127 245.5 195.5t287.5 68.5q138 0 247 -46.5t174.5 -143t65.5 -230.5q0 -54 -18 -102t-46.5 -83t-63.5 -66t-70 -56.5t-63.5 -49t-46.5 -48t-18 -49.5v-113h-381v164q0 44 24 87.5t60.5 77t78.5 68t78.5 61.5t60.5 57.5t24 56.5q0 96 -151 96 q-61 0 -134.5 -49.5t-132.5 -118.5zM264 209q0 83 65 150t169 67q106 0 174.5 -63.5t68.5 -153.5q0 -89 -67 -150t-176 -61q-97 0 -165.5 64.5t-68.5 146.5z" />
<glyph unicode="@" horiz-adv-x="1705" d="M121 479q0 83 21 168t60.5 167.5t102.5 154.5t141 127t182.5 86.5t221.5 31.5q140 0 261.5 -45t206.5 -120t146.5 -170.5t91 -198t29.5 -201.5q0 -105 -21.5 -185.5t-57.5 -127.5t-82.5 -76t-97.5 -35t-102 -1t-96 23t-80 41t-53 48l-32 59q-27 -47 -79.5 -66.5 t-99.5 -19.5q-66 0 -122.5 22.5t-96 74.5t-39.5 124q0 112 78 178t195 66q82 0 129 -47v47q0 41 -31.5 57.5t-93.5 16.5q-86 0 -195 -62l-55 152q145 96 289 96q65 0 123.5 -13t113 -42.5t87 -85t32.5 -131.5v-258q3 -52 45 -87q47 -39 88 -8q64 47 64 240q0 75 -21.5 151.5 t-67 148.5t-108.5 128t-153.5 89.5t-194.5 33.5t-194 -33.5t-152 -89.5t-106.5 -128t-65.5 -148.5t-21 -151.5q0 -102 39.5 -197t109.5 -167.5t174.5 -115t225.5 -40.5v-184q-161 -1 -301 57t-235 156t-149 226t-54 265zM776 373q0 -27 19.5 -43.5t50.5 -16.5q27 0 52.5 13 t29.5 30v47q-1 1 -4 6t-5.5 8.5t-9 9t-13.5 9t-19.5 6t-26.5 2.5q-37 0 -55.5 -19.5t-18.5 -51.5z" />
<glyph unicode="A" horiz-adv-x="1685" d="M31 0v268h139l276 899h-84v265h787l362 -1164h144v-268h-821v268h194l-43 140h-420l-43 -140h160v-268h-651zM641 653h268l-135 443z" />
<glyph unicode="B" horiz-adv-x="1406" d="M51 0v266h119v901h-119v265h764q251 0 376.5 -90.5t125.5 -260.5q0 -131 -43.5 -201.5t-157.5 -115.5q120 -33 195 -120t75 -228q0 -218 -131 -317t-426 -99h-778zM594 266h164q68 0 117 48t49 128q0 81 -45 131t-127 50h-158v-357zM594 854h125q78 0 108.5 39.5 t30.5 118.5q0 69 -37.5 109t-97.5 40h-129v-307z" />
<glyph unicode="C" horiz-adv-x="1404" d="M31 702q0 136 39 258.5t103 211t145 154t167.5 98t167.5 32.5q71 0 131.5 -17t98.5 -44t56.5 -44.5t29.5 -33.5l47 115h321v-582h-366q-5 109 -60 183.5t-157 74.5q-108 0 -176 -117.5t-68 -288.5q0 -104 33 -190t102.5 -140.5t163.5 -54.5q31 0 63 8t58 20.5t53 30.5 t46.5 34t40 36t31 32t22.5 26l12 14l239 -262q-115 -128 -273.5 -208.5t-346.5 -80.5q-328 0 -525.5 197.5t-197.5 537.5z" />
<glyph unicode="D" horiz-adv-x="1474" d="M51 0v272h127v889h-127v271h625q182 0 330 -54t245.5 -148t150 -221t52.5 -274q0 -351 -204.5 -543t-581.5 -192h-617zM598 272h78q105 2 175.5 65.5t101 164t30.5 233.5q0 85 -18 159.5t-53.5 135t-96.5 96t-139 35.5h-78v-889z" />
<glyph unicode="E" horiz-adv-x="1337" d="M51 0v272h129v889h-129v271h1235v-453h-354v182h-328v-282h389v-273h-389v-334h328v191h354v-463h-1235z" />
<glyph unicode="F" horiz-adv-x="1306" d="M51 0v272h127v889h-127v271h1225v-453h-363v182h-309v-356h389v-273h-389v-260h209v-272h-762z" />
<glyph unicode="G" horiz-adv-x="1589" d="M31 702q0 162 53.5 305t141 240t201 153t232.5 56q71 0 131 -11t97.5 -26t70.5 -37.5t48 -38t32.5 -36t20.5 -23.5l43 148h305v-605h-367q-4 120 -71 190t-162 70q-81 0 -146 -53.5t-100 -141.5t-35 -190q0 -162 75.5 -269t205.5 -107q80 0 125 26.5t72 73.5v86h-125v219 h680v-219h-82v-512h-410l-63 129q-36 -61 -126.5 -104t-203.5 -43q-134 0 -251.5 51t-204.5 142.5t-137 228t-50 298.5z" />
<glyph unicode="H" horiz-adv-x="1572" d="M51 0v270h113v891h-113v271h664v-271h-127v-309h389v309h-121v271h666v-271h-119v-891h119v-270h-666v270h121v310h-389v-310h127v-270h-664z" />
<glyph unicode="I" horiz-adv-x="782" d="M51 0v272h129v889h-129v271h680v-271h-127v-889h127v-272h-680z" />
<glyph unicode="J" horiz-adv-x="948" d="M41 -125q41 -18 92 -18q170 0 170 295v1011h-176v269h770v-269h-170v-1011q0 -139 -31 -242.5t-98.5 -178t-179.5 -112t-268 -37.5q-46 0 -109 23v270z" />
<glyph unicode="K" horiz-adv-x="1669" d="M51 0v266h111v901h-111v265h645v-265h-110v-333l381 333h-148v265h682v-265h-119l-297 -256l414 -645h119v-266h-799v266h139l-221 348l-151 -129v-219h110v-266h-645z" />
<glyph unicode="L" horiz-adv-x="1249" d="M51 0v272h113v889h-113v271h647v-271h-108v-889h264v260h344v-532h-1147z" />
<glyph unicode="M" horiz-adv-x="2064" d="M51 0v264h111v903h-109v265h776l207 -766l197 766h780v-265h-112v-901h112v-266h-647v266h115v684v121h-8q-30 -174 -60 -274l-215 -797h-428l-229 817q-35 124 -43 254h-9v-807h117v-264h-555z" />
<glyph unicode="N" horiz-adv-x="1671" d="M51 0v264h121v903h-119v265h588l502 -752v487h-139v265h616v-265h-135v-1167h-441l-522 780v-516h158v-264h-629z" />
<glyph unicode="O" horiz-adv-x="1515" d="M31 723q0 218 91 388.5t254.5 264.5t373.5 94q185 0 326 -54t230 -154t134 -239t45 -314q0 -350 -188.5 -548t-532.5 -198q-162 0 -295.5 47.5t-231.5 140t-152 238.5t-54 334zM537 723q0 -198 63.5 -318t163.5 -120q96 0 152.5 116t56.5 308q0 129 -22.5 226.5 t-74.5 158.5t-128 61h-2q-92 0 -150 -120q-59 -121 -59 -312z" />
<glyph unicode="P" horiz-adv-x="1310" d="M51 0v270h115v893h-115v269h664q138 0 240.5 -24t164 -63t98 -97.5t49.5 -118.5t13 -136q0 -130 -74.5 -223.5t-194.5 -137.5t-270 -44h-155v-318h125v-270h-660zM586 809h92q91 0 146 45t55 125q0 90 -50.5 138t-140.5 48h-102v-356z" />
<glyph unicode="Q" horiz-adv-x="1546" d="M31 725q0 315 190.5 514t497.5 199q178 0 312.5 -52t219 -148.5t126.5 -228.5t42 -298q0 -327 -170 -512q15 -60 35.5 -96.5t54.5 -36.5q41 0 41 92v59h136v-104q0 -143 -80 -235.5t-228 -92.5q-118 0 -199 64t-118 163q-74 -12 -160 -12q-156 0 -284 46t-221 135 t-144 227.5t-51 316.5zM481 725q0 -66 8 -113q95 99 242 99q118 0 230 -80q4 50 4 80q0 182 -68.5 305t-179.5 123h-3q-92 0 -162 -118q-71 -120 -71 -296zM594 375q62 -68 137 -68q58 0 109 45q-12 85 -36 128.5t-73 43.5q-84 0 -137 -149z" />
<glyph unicode="R" horiz-adv-x="1509" d="M51 0v270h115v893h-115v269h666q139 0 241 -22t164 -58.5t99 -93t50 -114.5t13 -134q0 -117 -83 -197.5t-214 -99.5q108 -15 188 -99t80 -192q0 -139 50 -139q47 0 47 65v68h137v-113q0 -53 -9 -99.5t-31 -89t-55.5 -73t-85.5 -48.5t-118 -18q-198 0 -297.5 99t-99.5 282 q0 75 -6 115.5t-28.5 69.5t-61.5 38t-109 9v-318h125v-270h-662zM588 817h92q91 0 144 43t53 123q0 90 -48.5 136t-138.5 46h-102v-348z" />
<glyph unicode="S" horiz-adv-x="1454" d="M51 0v516h381q0 -49 19 -86.5t46.5 -59t65 -35t67 -18.5t60.5 -6q43 0 78.5 7t65.5 31.5t30 64.5q0 25 -27 45.5t-72.5 36.5t-104.5 32t-124 36.5t-130 45.5t-124 63t-104.5 85.5t-72.5 116.5t-27 153q0 87 31.5 161.5t82 124.5t115 86t130.5 52t128 16q141 0 255.5 -50 t172.5 -158l21 172h352v-514h-371q0 110 -75 173.5t-187 63.5q-51 0 -96 -29t-45 -79q0 -33 27.5 -61.5t74.5 -50t108 -42t128.5 -43.5t134.5 -49.5t128 -64t108 -82.5t74.5 -109.5t27.5 -141.5q0 -92 -33.5 -167t-87.5 -124t-126 -82t-146 -47t-150 -14q-143 0 -251.5 54.5 t-176.5 134.5l-22 -158h-359z" />
<glyph unicode="T" horiz-adv-x="1435" d="M31 899v533h1374v-533h-301v262h-172v-889h170v-272h-762v272h168v889h-176v-262h-301z" />
<glyph unicode="U" horiz-adv-x="1509" d="M31 1165v267h651v-265h-111v-442q0 -98 9 -168.5t25 -115t42.5 -70.5t56.5 -35.5t72 -9.5q41 0 70 8t56.5 32t44 67.5t26.5 117t10 176.5v434h-111v271h607v-265h-111v-497q0 -359 -148 -532t-440 -173q-315 9 -475 179.5t-160 514.5v506h-114z" />
<glyph unicode="V" horiz-adv-x="1583" d="M-20 1165v267h753v-267h-110l174 -458q58 -175 63 -248h10q6 92 74 260l186 446h-108v267h582v-267h-101l-491 -1165h-377l-543 1165h-112z" />
<glyph unicode="W" horiz-adv-x="2078" d="M-20 1165v267h675v-267h-118l53 -299q28 -117 65 -403h11q3 49 100 508l102 461h426l129 -566q41 -187 62 -403h10q6 65 26 193t35 198l70 311h-113v267h586v-267h-112l-306 -1165h-485l-123 487q-28 109 -51 254h-8q-12 -95 -49 -249l-125 -492h-475l-271 1165h-114z " />
<glyph unicode="X" horiz-adv-x="1710" d="M51 0v264h178l301 391l-370 510h-107v267h811v-267h-119l201 -272l209 272h-180v267h680v-267h-174l-310 -395l369 -504h119v-266h-817v266h116l-155 209l-43 57l-211 -268h182v-264h-680z" />
<glyph unicode="Y" horiz-adv-x="1370" d="M-20 1169v263h700v-263h-107l119 -217q5 -17 32.5 -82t31.5 -84h8q3 14 13 39.5t18.5 44.5t24.5 52t20 41l112 206h-112v263h551v-263h-111l-379 -665v-238h115v-266h-656v266h117v242l-397 661h-100z" />
<glyph unicode="Z" horiz-adv-x="1462" d="M51 0v266l746 893h-385v-266h-349v539h1344l4 -273l-749 -889h380v262h363v-532h-1354z" />
<glyph unicode="[" horiz-adv-x="794" d="M283 -430v2097h512v-268h-123v-1561h121v-268h-510z" />
<glyph unicode="\" horiz-adv-x="823" d="M0 1497h332l594 -1814h-332z" />
<glyph unicode="]" horiz-adv-x="794" d="M0 1399h123v-1561h-121v-268h510v2097h-512v-268z" />
<glyph unicode="_" d="M86 -90h1104v-111h-1104v111z" />
<glyph unicode="a" horiz-adv-x="1228" d="M31 303q0 112 58.5 199t155 132.5t212.5 45.5q55 0 103.5 -16.5t69.5 -31t29 -24.5v72q0 64 -51 89.5t-143 25.5q-133 0 -305 -95l-86 238q243 145 446 145q79 0 152.5 -11.5t148.5 -42t130 -76.5t89.5 -121t34.5 -170v-400h123v-262h-438l-49 92q-51 -70 -129 -100.5 t-148 -30.5q-60 0 -117 12.5t-109 39.5t-91 66.5t-62.5 97t-23.5 126.5zM420 324q0 -42 31 -69.5t77 -27.5q43 0 79.5 21t51.5 47v78q-35 59 -120 59q-59 0 -89 -29.5t-30 -78.5z" />
<glyph unicode="b" horiz-adv-x="1343" d="M63 0v266h87v1002h-87v268h496v-592q34 39 113 67.5t155 28.5q113 0 205 -45t150 -121q58 -74 88 -170q28 -90 28 -187v-13q-5 -239 -131.5 -383t-341.5 -144q-73 0 -127.5 14.5t-80.5 31t-62 47.5l-31 -70h-461zM555 489q0 -103 44 -174t103 -71q65 0 105.5 70t40.5 186 q0 62 -18 119.5t-52.5 95t-77.5 37.5q-63 0 -107 -73q-39 -64 -39 -163q0 -13 1 -27z" />
<glyph unicode="c" horiz-adv-x="1087" d="M2 518q0 131 41.5 233.5t112.5 165t160 94t190 31.5q157 0 256 -116l35 98h241v-463h-301q-2 55 -13.5 100t-41.5 80t-74 35q-86 0 -133 -77t-47 -185q0 -103 57.5 -172t153.5 -70h5q74 0 130 28q58 29 113 89l180 -209q-80 -87 -213.5 -148t-288.5 -61q-115 0 -215.5 35 t-178.5 101t-123.5 172t-45.5 239z" />
<glyph unicode="d" horiz-adv-x="1298" d="M20 522q0 116 39 215.5t104.5 166t152 103.5t180.5 37q51 0 93.5 -7.5t77.5 -23t48 -22.5t39 -24v303h-95v266h510v-1270h99v-266h-480l-34 76q-20 -18 -47.5 -36t-87 -38t-123.5 -20q-140 0 -250.5 76t-168 198.5t-57.5 265.5zM461 522q0 -98 41.5 -175t105.5 -77 t108 73q39 64 39 162q0 13 -1 27q0 103 -44.5 174.5t-103.5 71.5q-65 0 -105 -70t-40 -186z" />
<glyph unicode="e" horiz-adv-x="1110" d="M10 518q0 123 42.5 225t117 169t175 104t216.5 37q180 0 312.5 -82.5t177.5 -214.5q14 -40 22 -95q6 -40 6 -88q0 -17 -1 -37q-3 -70 -23 -126h-645q5 -23 10 -39t20 -43t35.5 -43.5t58.5 -29.5t87 -13q46 0 82 4.5t94.5 27.5t109.5 66l172 -199q-111 -96 -237.5 -137 t-290.5 -41q-79 0 -154 19.5t-146 63t-124 107t-85 157.5t-32 208zM416 612h309q-1 34 -6.5 59.5t-20.5 51t-46.5 39.5t-78.5 14q-44 0 -76 -17.5t-48 -46t-23.5 -52.5t-9.5 -48z" />
<glyph unicode="f" horiz-adv-x="790" d="M51 758v266h84v174q0 30 3 58t13 67t27 72t48.5 67t72.5 57.5t103.5 38.5t138.5 15q80 0 170.5 -15.5t130.5 -35.5l-123 -236q-48 21 -113 21t-65 -109v-174h186v-266h-186v-490h123v-268h-611v268h82v490h-84z" />
<glyph unicode="g" horiz-adv-x="1310" d="M20 518q0 243 133 384.5t382 141.5q64 0 123.5 -24.5t93.5 -58.5l41 63h487v-268h-123v-613q0 -262 -162 -412t-477 -151q-104 1 -203.5 32.5t-159.5 68.5t-106 79l109 228q49 -42 151 -86.5t205 -44.5q66 0 114.5 17.5t74 46.5t37.5 61t12 67v70q-32 -41 -93 -77 t-147 -36q-102 0 -186 28.5t-140 77t-94 115t-55 139t-17 152.5zM457 522q0 -98 41.5 -175t105.5 -77q63 0 108 73q39 64 39 162q0 13 -1 27q0 103 -44.5 174.5t-103.5 71.5q-65 0 -105 -70t-40 -186z" />
<glyph unicode="h" horiz-adv-x="1353" d="M51 0v268h86v1002h-86v266h496v-639q26 42 124.5 103t196.5 61q66 0 119.5 -14t90.5 -37.5t64.5 -59t43.5 -72.5t25.5 -85t12.5 -90t3 -93v-342h96v-268h-526v557q0 30 -1 48t-7 48.5t-18 48.5t-36 32t-59 14q-37 0 -63.5 -17t-40 -46t-19.5 -60.5t-6 -67.5v-289h147 v-268h-643z" />
<glyph unicode="i" horiz-adv-x="675" d="M51 0v268h86v490h-86v266h475v-756h99v-268h-574zM109 1323q0 78 60.5 143.5t160.5 65.5q99 0 162 -66t63 -143q0 -89 -60 -148t-165 -59q-93 0 -157 64.5t-64 142.5z" />
<glyph unicode="j" horiz-adv-x="737" d="M29 -154q48 0 86 11.5t62 28t41.5 44.5t25.5 50t12.5 56.5t5 52.5t0.5 48v6v615h-86v266h475v-881q0 -60 -5.5 -112t-22.5 -112t-45 -108t-75.5 -94t-111.5 -77t-156.5 -49.5t-205.5 -18.5v274zM233 1323q0 78 61 143.5t161 65.5q99 0 162 -66t63 -143q0 -89 -60 -148 t-165 -59q-93 0 -157.5 65t-64.5 142z" />
<glyph unicode="k" horiz-adv-x="1339" d="M78 0v266h84v1002h-84v268h473v-926l237 142h-147v270h573v-270h-157l-139 -88l276 -396h102v-268h-606v268h86l-155 221l-72 -49v-172h76v-268h-547z" />
<glyph unicode="l" horiz-adv-x="679" d="M51 0v268h88v1004h-86v264h475v-1268h121v-268h-598z" />
<glyph unicode="m" horiz-adv-x="1859" d="M51 0v268h86v484h-86v270h387l45 -121q127 150 256 150q59 0 108.5 -11.5t78.5 -25.5t56 -38.5t37 -37.5t25 -35q130 148 302 148q96 0 167 -28t111.5 -72t65 -111.5t32 -132.5t7.5 -148v-283h100v-276h-520v502q0 12 0.5 34t0.5 37.5v37.5t-2 37.5t-5 33.5t-9 30 t-14.5 23t-20.5 16t-28 5q-62 0 -85.5 -38.5t-23.5 -111.5v-332h123v-274h-530v522q0 48 -0.5 75.5t-3.5 58t-8.5 46t-15 30t-23.5 19.5t-35 5q-49 0 -70.5 -29.5t-21.5 -93.5v-365h122v-268h-608z" />
<glyph unicode="n" horiz-adv-x="1325" d="M51 0v268h86v490h-86v266h436l48 -127q120 164 292 164q92 0 160 -27t107.5 -69t63.5 -104t32 -121t8 -130v-342h96v-268h-516v559q0 89 -12 124q-26 66 -102 67q-37 0 -63.5 -17t-40 -46t-19.5 -60.5t-6 -67.5v-291h147v-268h-631z" />
<glyph unicode="o" horiz-adv-x="1175" d="M23 516q1 100 32 186.5t85 149t125 108t152.5 67.5t166.5 22q163 -2 289.5 -65t201.5 -186t78 -290v-6q0 -120 -42 -220q-43 -102 -119.5 -169t-178.5 -103.5t-219 -36.5q-112 0 -213.5 34.5t-183 100.5t-128.5 172q-46 103 -46 231v5zM442 514q0 -124 43 -201t109 -77 q64 0 101.5 76.5t37.5 195.5t-39.5 196t-109.5 78q-60 0 -101 -77.5t-41 -190.5z" />
<glyph unicode="p" horiz-adv-x="1306" d="M51 -150h86v902h-86v272h469l35 -72q118 88 248 88q116 0 209.5 -42.5t152.5 -116.5t90 -170.5t31 -206.5q0 -159 -62 -280t-167.5 -184t-237.5 -63q-59 0 -109.5 10t-83.5 26t-47.5 25.5t-25.5 18.5v-207h111v-268h-613v268zM553 489q0 -103 44 -174t103 -71 q65 0 105.5 70t40.5 186q0 62 -18 119.5t-52.5 95t-77.5 37.5q-63 0 -107 -73q-39 -64 -39 -163q0 -13 1 -27z" />
<glyph unicode="q" horiz-adv-x="1351" d="M51 518q0 129 38 231t105 165.5t155.5 96.5t191.5 33q89 0 156 -27t87 -54l39 61h477v-266h-100v-955h100v-274h-649v268h133v271q-42 -35 -110.5 -60.5t-151.5 -25.5q-98 0 -184 38t-149.5 106t-100.5 169.5t-37 222.5zM492 516q0 -103 44 -174.5t103 -71.5q65 0 105 70 t40 186q0 98 -41.5 175t-105.5 77q-63 0 -107 -72q-39 -64 -39 -163q0 -13 1 -27z" />
<glyph unicode="r" horiz-adv-x="847" d="M51 0v268h90v490h-88v266h385l62 -131q20 36 33.5 57.5t40 48.5t56.5 41t78 24.5t109 10.5v-368q-147 0 -218 -49.5t-71 -178.5v-211h103v-268h-580z" />
<glyph unicode="s" horiz-adv-x="1040" d="M31 0v369h274q0 -38 24.5 -67t61.5 -43.5t70.5 -21t60.5 -6.5q90 0 90 70q0 17 -16.5 30.5t-48.5 24.5t-66 20t-83.5 22t-86.5 26q-57 20 -102 45.5t-85.5 63.5t-62.5 94t-22 125q0 74 35.5 133.5t91 94t115.5 52t118 17.5q102 0 187.5 -46t118.5 -114l16 135h252v-369 h-266q0 63 -65 109.5t-144 46.5q-35 0 -57.5 -19t-22.5 -55q0 -16 12 -30t41 -27t52 -21.5t72.5 -24t74.5 -24.5q45 -15 68.5 -23.5t64 -26.5t63.5 -33.5t52 -41t44 -53t26 -66t11 -83.5q0 -139 -112.5 -223.5t-268.5 -84.5q-105 0 -189.5 43.5t-123.5 106.5l-18 -125h-256z " />
<glyph unicode="t" horiz-adv-x="743" d="M31 758v266h110v188l377 121v-309h195v-266h-195v-365q0 -9 -0.5 -31t-0.5 -33t1.5 -29.5t6 -28.5t11.5 -21t19 -16t29 -5q44 0 129 35v-262q-41 -17 -122 -28t-126 -11q-90 0 -151 22t-94 52t-50.5 94t-22 114.5t-6.5 147.5v365h-110z" />
<glyph unicode="u" d="M31 754v270h495v-494q0 -136 25 -197t86 -61q55 0 92 44t37 112v326h-135v270h530v-752h101v-272h-388l-55 129q-1 -1 -20.5 -24t-27.5 -30.5t-30 -28.5t-40.5 -30t-46 -22t-59 -18t-67.5 -5q-226 0 -318.5 119t-92.5 381v283h-86z" />
<glyph unicode="v" horiz-adv-x="1255" d="M0 764v260h623v-260h-103l94 -217q46 -134 54 -215h8q2 35 19 102t42 123l99 207h-109v260h528v-260h-106l-354 -764h-318l-381 764h-96z" />
<glyph unicode="w" horiz-adv-x="1785" d="M0 758v266h551v-266h-70l45 -150q20 -67 34 -154t18 -141h4q19 266 84 482l65 229h379l78 -266q60 -194 88 -445h4q17 192 55 324l35 121h-84v266h500v-266h-84l-240 -758h-432l-141 463l-148 -463h-422l-231 758h-88z" />
<glyph unicode="x" horiz-adv-x="1329" d="M41 0v254h137l209 235l-254 279h-92v256h664v-256h-97l144 -156l153 156h-137v256h522v-256h-135l-217 -219l258 -295h96v-254h-653v254h96l-155 166l-148 -166h133v-254h-524z" />
<glyph unicode="y" horiz-adv-x="1187" d="M-18 762v262h630v-260h-96l133 -320l133 320h-94v260h520v-254h-98l-389 -946q-23 -49 -40 -80t-54.5 -75.5t-79.5 -70.5t-111 -45q-67 -18 -147 -18h-8q-138 8 -248 103l153 241q67 -59 119 -69q9 -2 17 -2q34 0 62 26q35 33 52 84l29 86l-399 758h-84z" />
<glyph unicode="z" horiz-adv-x="1132" d="M51 0v268l494 492h-228v-146h-266v410h1014v-264l-487 -492h215v140h288v-408h-1030z" />
<glyph unicode="{" horiz-adv-x="921" d="M51 639q15 23 38.5 58.5t67.5 114.5t54 120q17 67 21 143.5t0.5 135t-4 120t11.5 109.5t42 92t92 78.5t158 58.5l211 -217q-84 -19 -135 -44.5t-70.5 -54.5t-23.5 -64.5t6 -76t18 -87.5t13 -99t-10 -111q-8 -36 -36.5 -105t-52.5 -120l-24 -51q70 -176 84 -252 q13 -65 7.5 -121.5t-12.5 -108t-15 -95.5t-1 -83t30 -72t78.5 -62.5t143.5 -53.5l-211 -219q-93 30 -158 68t-101.5 78t-56.5 90t-24 98t-3.5 108.5t4.5 115t1.5 124t-14.5 129.5q-7 36 -39.5 100t-60.5 110z" />
<glyph unicode="|" horiz-adv-x="819" d="M313 -207v1882h191v-1882h-191z" />
<glyph unicode="}" horiz-adv-x="921" d="M236 -209l210 -219q93 30 158 68t101.5 78t57 90t24.5 98t3.5 108.5t-4.5 115t-1.5 124t14.5 129.5q7 36 39.5 100t61.5 110l28 46q-15 23 -38.5 58.5t-67.5 114.5t-54 120q-17 67 -21 143.5t-1 135t3.5 120t-11.5 109.5t-42 92t-92 78.5t-158 58.5l-210 -217 q84 -19 135 -44.5t70.5 -54.5t23.5 -64.5t-6 -76t-18 -87.5t-13 -99t10 -111q8 -36 36.5 -105t52.5 -120l24 -51q-70 -176 -84 -252q-13 -65 -7.5 -121.5t12.5 -108t15 -95.5t1 -83t-30 -72t-78.5 -62.5t-143.5 -53.5z" />
<glyph unicode="~" horiz-adv-x="819" d="M0 406q57 55 164 70.5t221 -27.5q66 -28 150 -39.5t164 2.5t116 57v223q-30 -37 -89 -60.5t-135.5 -26t-156.5 31.5q-113 55 -243 51.5t-191 -59.5v-223z" />
<glyph unicode="&#xa3;" horiz-adv-x="1454" d="M20 772v102h250q-66 178 4 365q44 120 137.5 205t214 123t254 39t270 -44.5t249.5 -129.5v-332q-63 55 -159.5 100.5t-198.5 70t-195.5 6t-140.5 -86.5q-31 -44 -35 -99t9 -102t42 -115h459v-102h-414q30 -69 46 -121t26 -118.5t-5 -132t-55 -128.5h264v260h344v-532 h-1146v272h112q21 33 35 64.5t19.5 64t9 56.5t-3 57t-9.5 51t-18 53.5t-21 49t-25.5 53t-25.5 51.5h-293z" />
<glyph unicode="&#xa5;" horiz-adv-x="1370" d="M-25 362v103h502v43l-71 121h-431v102h369l-264 438h-100v263h700v-263h-107l119 -217q5 -17 32.5 -82t31.5 -84h8q3 14 13 39.5t18.5 44.5t24.5 52t20 41l112 206h-112v263h551v-263h-111l-250 -438h371v-102h-428l-72 -125v-39h500v-103h-500v-96h115v-266h-656v266 h117v96h-502z" />
<glyph unicode="&#xa9;" horiz-adv-x="1705" d="M100 664q0 99 31 201.5t94.5 198t151 170.5t210.5 120t263 45t263.5 -45t212 -120t153 -170.5t96 -198t31.5 -201.5q0 -153 -49.5 -284.5t-143 -230t-238.5 -154.5t-325 -56q-159 0 -300.5 62t-239 163.5t-154 232.5t-56.5 267zM291 664q0 -101 42 -198.5t114.5 -173.5 t178.5 -122.5t224 -46.5q135 0 243.5 42t178 115.5t106.5 171.5t37 212q0 75 -23.5 152t-72 148t-114.5 127t-158.5 89.5t-196.5 33.5t-196 -33.5t-157 -89.5t-112.5 -127.5t-70.5 -148t-23 -151.5zM457 662q0 93 29.5 165.5t80 116t113.5 66t135 22.5q110 0 182 -84l23 72 h172v-330h-213q-2 61 -23.5 106.5t-66.5 45.5q-61 0 -96 -55.5t-35 -129.5t41.5 -124t111.5 -50q97 0 176 82l127 -145q-59 -64 -153.5 -108t-204.5 -44t-198.5 42.5t-144.5 133.5t-56 218z" />
<glyph unicode="&#xab;" horiz-adv-x="1433" d="M154 430l557 -512l77 213l-403 432l403 436l-124 230l-510 -512v-287zM645 430l557 -512l78 213l-403 432l403 436l-125 230l-510 -512v-287z" />
<glyph unicode="&#xad;" horiz-adv-x="790" d="M96 352v273h594v-273h-594z" />
<glyph unicode="&#xae;" horiz-adv-x="1705" d="M100 664q0 99 31 201.5t94.5 198t151 170.5t210.5 120t263 45t263.5 -45t212 -120t153 -170.5t96 -198t31.5 -201.5q0 -153 -49.5 -284.5t-143 -230t-238.5 -154.5t-325 -56q-159 0 -300.5 62t-239 163.5t-154 232.5t-56.5 267zM291 664q0 -101 42 -198.5t114.5 -173.5 t178.5 -122.5t224 -46.5q135 0 243.5 42t178 115.5t106.5 171.5t37 212q0 75 -23.5 152t-72 148t-114.5 127t-158.5 89.5t-196.5 33.5t-196 -33.5t-157 -89.5t-112.5 -127.5t-70.5 -148t-23 -151.5zM510 270v142h63v473h-63v145h356q91 0 152.5 -17t92 -49.5t42.5 -70 t12 -88.5q0 -62 -44 -103.5t-113 -50.5q59 -16 101 -58.5t42 -98.5q0 -76 27 -76q22 0 22 35v36h76v-61q0 -76 -38 -125t-122 -49q-103 0 -153 53t-50 150q0 76 -22.5 100.5t-95.5 24.5v-170h67v-142h-352zM795 702h49q106 0 106 89q0 96 -102 96h-53v-185z" />
<glyph unicode="&#xb1;" d="M184 37v223h908v-223h-908zM184 711v223h342v340h224v-340h342v-223h-342v-344h-224v344h-342z" />
<glyph unicode="&#xb2;" horiz-adv-x="819" d="M127 647v160q44 72 74.5 107t83.5 75q23 20 79.5 57.5t84.5 65.5t28 59q0 40 -24 56t-70 16q-26 0 -53.5 -15.5t-39.5 -27.5t-38 -39l-119 125q122 135 283 135q112 0 186 -66t74 -173q0 -38 -7.5 -67.5t-19 -50.5t-36.5 -44.5t-46 -38.5t-63 -43q-49 -32 -99 -74 t-67 -71h192v88h183v-234h-586z" />
<glyph unicode="&#xb3;" horiz-adv-x="819" d="M133 772l109 115q28 -24 43.5 -35.5t44 -23t59.5 -11.5q46 0 71 21t25 61q0 82 -96 82h-78v127h78q43 0 69.5 20.5t26.5 55.5q0 40 -29.5 63t-66.5 23q-64 0 -127 -66l-106 129q35 37 100.5 69t132.5 32q130 0 203.5 -62t73.5 -168q0 -74 -80 -137q100 -77 100 -178 q0 -58 -26 -105t-68.5 -76t-94.5 -44t-108 -15q-77 0 -150.5 37t-105.5 86z" />
<glyph unicode="&#xbb;" horiz-adv-x="1433" d="M154 131l403 432l-403 436l125 230l509 -512v-287l-557 -512zM645 131l404 432l-404 436l125 230l510 -512v-287l-557 -512z" />
<glyph unicode="&#xbf;" horiz-adv-x="1064" d="M4 -94q0 54 18 102t46.5 83t63.5 66t70 56.5t63.5 49t46.5 48t18 49.5v113h381v-164q0 -52 -33.5 -102.5t-81.5 -90t-96 -75.5t-81.5 -72t-33.5 -67q0 -97 152 -97q61 0 134 49.5t132 118.5l221 -223q-109 -127 -245 -195.5t-287 -68.5q-138 0 -247 46.5t-175 143 t-66 230.5zM287 741q0 89 67 150t176 61q97 0 165.5 -64.5t68.5 -146.5q0 -83 -65 -150t-169 -67q-106 0 -174.5 63.5t-68.5 153.5z" />
<glyph unicode="&#xc0;" horiz-adv-x="1685" d="M31 0v268h139l276 899h-84v265h787l362 -1164h144v-268h-821v268h194l-43 140h-420l-43 -140h160v-268h-651zM535 1700l141 196l268 -368l-176 -90zM641 653h268l-135 443z" />
<glyph unicode="&#xc1;" horiz-adv-x="1685" d="M31 0v268h139l276 899h-84v265h787l362 -1164h144v-268h-821v268h194l-43 140h-420l-43 -140h160v-268h-651zM596 1528l176 -90l234 262l-142 196zM641 653h268l-135 443z" />
<glyph unicode="&#xc2;" horiz-adv-x="1685" d="M31 0v268h139l276 899h-84v265h787l362 -1164h144v-268h-821v268h194l-43 140h-420l-43 -140h160v-268h-651zM369 1536l176 -90l233 166l240 -148l127 107l-303 229h-144zM641 653h268l-135 443z" />
<glyph unicode="&#xc3;" horiz-adv-x="1685" d="M31 0v268h139l276 899h-84v265h787l362 -1164h144v-268h-821v268h194l-43 140h-420l-43 -140h160v-268h-651zM360 1470q57 55 164 70.5t221 -27.5q63 -27 151.5 -36.5t162.5 5.5t92 52v205q-41 -37 -91.5 -56.5t-119.5 -16.5t-145 36q-113 55 -243.5 51.5t-191.5 -59.5 v-224zM641 653h268l-135 443z" />
<glyph unicode="&#xc4;" horiz-adv-x="1685" d="M31 0v268h139l276 899h-84v265h787l362 -1164h144v-268h-821v268h194l-43 140h-420l-43 -140h160v-268h-651zM508 1485v172h192v-172h-192zM641 653h268l-135 443zM836 1485v172h192v-172h-192z" />
<glyph unicode="&#xc6;" horiz-adv-x="2181" d="M23 0v268h139l563 899h-84v265h1518v-453h-355v182h-327v-282h389v-273h-389v-334h327v191h355v-463h-1235v272h129v136h-455l-84 -140h160v-268h-651zM743 653h310v443z" />
<glyph unicode="&#xc7;" horiz-adv-x="1404" d="M31 702q0 136 39 258.5t103 211t145 154t167.5 98t167.5 32.5q71 0 131.5 -17t98.5 -44t56.5 -44.5t29.5 -33.5l47 115h321v-582h-366q-5 109 -60 183.5t-157 74.5q-108 0 -176 -117.5t-68 -288.5q0 -104 33 -190t102.5 -140.5t163.5 -54.5q31 0 63 8t58 20.5t53 30.5 t46.5 34t40 36t31 32t22.5 26l12 14l239 -262q-115 -128 -273.5 -208.5t-346.5 -80.5q-328 0 -525.5 197.5t-197.5 537.5zM600 -383l18 -4q19 -4 48.5 -7.5t66.5 -4.5t75.5 8t72 27.5t58.5 57t34 93.5q6 45 -1.5 75t-22 43.5t-42 18t-49 2.5t-56.5 -6q-9 -1 -14 -2l27 64 h-125l-57 -191q77 36 160 44q92 10 88 -39l-4 -19q-14 -36 -57 -58t-99.5 -21t-104.5 28z" />
<glyph unicode="&#xc8;" horiz-adv-x="1337" d="M51 0v272h129v889h-129v271h1235v-453h-354v182h-328v-282h389v-273h-389v-334h328v191h354v-463h-1235zM453 1706l141 197l268 -369l-176 -90z" />
<glyph unicode="&#xc9;" horiz-adv-x="1337" d="M51 0v272h129v889h-129v271h1235v-453h-354v182h-328v-282h389v-273h-389v-334h328v191h354v-463h-1235zM465 1536l176 -90l233 262l-141 197z" />
<glyph unicode="&#xca;" horiz-adv-x="1337" d="M51 0v272h129v889h-129v271h1235v-453h-354v182h-328v-282h389v-273h-389v-334h328v191h354v-463h-1235zM328 1536l176 -90l233 166l240 -148l127 107l-303 229h-144z" />
<glyph unicode="&#xcb;" horiz-adv-x="1275" d="M51 0v272h129v889h-129v271h1235v-453h-354v182h-328v-282h389v-273h-389v-334h328v191h354v-463h-1235zM406 1485v172h192v-172h-192zM733 1485v172h193v-172h-193z" />
<glyph unicode="&#xcc;" horiz-adv-x="782" d="M51 0v272h129v889h-129v271h680v-271h-127v-889h127v-272h-680zM158 1708l141 197l268 -369l-176 -90z" />
<glyph unicode="&#xcd;" horiz-adv-x="782" d="M51 0v272h129v889h-129v271h680v-271h-127v-889h127v-272h-680zM219 1536l176 -90l234 262l-142 197z" />
<glyph unicode="&#xce;" horiz-adv-x="782" d="M-20 1536l176 -90l233 166l240 -148l127 107l-303 229h-144zM51 0v272h129v889h-129v271h680v-271h-127v-889h127v-272h-680z" />
<glyph unicode="&#xcf;" horiz-adv-x="782" d="M51 0v272h129v889h-129v271h680v-271h-127v-889h127v-272h-680zM121 1505v172h192v-172h-192zM449 1505v172h192v-172h-192z" />
<glyph unicode="&#xd1;" horiz-adv-x="1671" d="M51 0v264h121v903h-119v265h588l502 -752v487h-139v265h616v-265h-135v-1167h-441l-522 780v-516h158v-264h-629zM428 1470q57 55 164 70.5t221 -27.5q93 -43 237.5 -39t192.5 60v205q-63 -57 -160.5 -70.5t-220.5 33.5q-113 55 -243 51.5t-191 -59.5v-224z" />
<glyph unicode="&#xd2;" horiz-adv-x="1515" d="M31 723q0 218 91 388.5t254.5 264.5t373.5 94q185 0 326 -54t230 -154t134 -239t45 -314q0 -350 -188.5 -548t-532.5 -198q-162 0 -295.5 47.5t-231.5 140t-152 238.5t-54 334zM516 1735l141 196l269 -368l-176 -90zM537 723q0 -198 63.5 -318t163.5 -120q96 0 152.5 116 t56.5 308q0 129 -22.5 226.5t-74.5 158.5t-128 61q-93 1 -152 -120t-59 -312z" />
<glyph unicode="&#xd3;" horiz-adv-x="1515" d="M31 723q0 218 91 388.5t254.5 264.5t373.5 94q185 0 326 -54t230 -154t134 -239t45 -314q0 -350 -188.5 -548t-532.5 -198q-162 0 -295.5 47.5t-231.5 140t-152 238.5t-54 334zM537 723q0 -198 63.5 -318t163.5 -120q96 0 152.5 116t56.5 308q0 129 -22.5 226.5 t-74.5 158.5t-128 61q-93 1 -152 -120t-59 -312zM573 1567l177 -90l233 262l-141 196z" />
<glyph unicode="&#xd4;" horiz-adv-x="1515" d="M31 723q0 218 91 388.5t254.5 264.5t373.5 94q185 0 326 -54t230 -154t134 -239t45 -314q0 -350 -188.5 -548t-532.5 -198q-162 0 -295.5 47.5t-231.5 140t-152 238.5t-54 334zM348 1556l176 -90l234 166l239 -147l127 106l-303 230h-143zM537 723q0 -198 63.5 -318 t163.5 -120q96 0 152.5 116t56.5 308q0 129 -22.5 226.5t-74.5 158.5t-128 61q-93 1 -152 -120t-59 -312z" />
<glyph unicode="&#xd6;" horiz-adv-x="1515" d="M31 723q0 218 91 388.5t254.5 264.5t373.5 94q185 0 326 -54t230 -154t134 -239t45 -314q0 -350 -188.5 -548t-532.5 -198q-162 0 -295.5 47.5t-231.5 140t-152 238.5t-54 334zM487 1526v172h193v-172h-193zM537 723q0 -198 63.5 -318t163.5 -120q96 0 152.5 116 t56.5 308q0 129 -22.5 226.5t-74.5 158.5t-128 61q-93 1 -152 -120t-59 -312zM815 1526v172h193v-172h-193z" />
<glyph unicode="&#xd7;" d="M152 195l294 294l-294 293l192 193l295 -293l293 293l192 -193l-293 -293l293 -294l-192 -193l-293 295l-295 -295z" />
<glyph unicode="&#xd9;" horiz-adv-x="1509" d="M31 1165v267h651v-265h-111v-442q0 -98 9 -168.5t25 -115t42.5 -70.5t56.5 -35.5t72 -9.5q41 0 70 8t56.5 32t44 67.5t26.5 117t10 176.5v434h-111v271h607v-265h-111v-497q0 -359 -148 -532t-440 -173q-315 9 -475 179.5t-160 514.5v506h-114zM555 1706l141 197 l269 -369l-177 -90z" />
<glyph unicode="&#xda;" horiz-adv-x="1509" d="M31 1165v267h651v-265h-111v-442q0 -98 9 -168.5t25 -115t42.5 -70.5t56.5 -35.5t72 -9.5q41 0 70 8t56.5 32t44 67.5t26.5 117t10 176.5v434h-111v271h607v-265h-111v-497q0 -359 -148 -532t-440 -173q-315 9 -475 179.5t-160 514.5v506h-114zM596 1534l176 -90l234 262 l-142 197z" />
<glyph unicode="&#xdb;" horiz-adv-x="1509" d="M31 1165v267h651v-265h-111v-442q0 -98 9 -168.5t25 -115t42.5 -70.5t56.5 -35.5t72 -9.5q41 0 70 8t56.5 32t44 67.5t26.5 117t10 176.5v434h-111v271h607v-265h-111v-497q0 -359 -148 -532t-440 -173q-315 9 -475 179.5t-160 514.5v506h-114zM369 1536l176 -90l233 166 l240 -148l127 107l-303 229h-144z" />
<glyph unicode="&#xdc;" horiz-adv-x="1509" d="M31 1165v267h651v-265h-111v-442q0 -98 9 -168.5t25 -115t42.5 -70.5t56.5 -35.5t72 -9.5q41 0 70 8t56.5 32t44 67.5t26.5 117t10 176.5v434h-111v271h607v-265h-111v-497q0 -359 -148 -532t-440 -173q-315 9 -475 179.5t-160 514.5v506h-114zM489 1485v172h193v-172 h-193zM870 1485v172h193v-172h-193z" />
<glyph unicode="&#xe0;" horiz-adv-x="1228" d="M31 303q0 112 58.5 199t155 132.5t212.5 45.5q55 0 103.5 -16.5t69.5 -31t29 -24.5v72q0 64 -51 89.5t-143 25.5q-133 0 -305 -95l-86 238q243 145 446 145h39l-229 256l141 197l268 -369l-166 -86q74 -4 142 -18.5t135 -46t116 -77.5t79 -117t30 -160v-400h123v-262 h-438l-49 92q-51 -70 -129 -100.5t-148 -30.5q-60 0 -117 12.5t-109 39.5t-91 66.5t-62.5 97t-23.5 126.5zM420 324q0 -42 31 -69.5t77 -27.5q43 0 79.5 21t51.5 47v78q-35 59 -120 59q-59 0 -89 -29.5t-30 -78.5z" />
<glyph unicode="&#xe1;" horiz-adv-x="1228" d="M31 303q0 112 58.5 199t155 132.5t212.5 45.5q55 0 103.5 -16.5t69.5 -31t29 -24.5v72q0 64 -51 89.5t-143 25.5q-133 0 -305 -95l-86 238q243 145 446 145q79 0 152.5 -11.5t148.5 -42t130 -76.5t89.5 -121t34.5 -170v-400h123v-262h-438l-49 92q-51 -70 -129 -100.5 t-148 -30.5q-60 0 -117 12.5t-109 39.5t-91 66.5t-62.5 97t-23.5 126.5zM391 1167l176 -90l234 262l-142 197zM420 324q0 -42 31 -69.5t77 -27.5q43 0 79.5 21t51.5 47v78q-35 59 -120 59q-59 0 -89 -29.5t-30 -78.5z" />
<glyph unicode="&#xe2;" horiz-adv-x="1228" d="M31 303q0 112 58.5 199t155 132.5t212.5 45.5q55 0 103.5 -16.5t69.5 -31t29 -24.5v72q0 64 -51 89.5t-143 25.5q-133 0 -305 -95l-86 238q243 145 446 145q79 0 152.5 -11.5t148.5 -42t130 -76.5t89.5 -121t34.5 -170v-400h123v-262h-438l-49 92q-51 -70 -129 -100.5 t-148 -30.5q-60 0 -117 12.5t-109 39.5t-91 66.5t-62.5 97t-23.5 126.5zM106 1167l177 -90l233 166l240 -147l127 106l-303 230h-144zM420 324q0 -42 31 -69.5t77 -27.5q43 0 79.5 21t51.5 47v78q-35 59 -120 59q-59 0 -89 -29.5t-30 -78.5z" />
<glyph unicode="&#xe3;" horiz-adv-x="1228" d="M31 303q0 112 58.5 199t155 132.5t212.5 45.5q55 0 103.5 -16.5t69.5 -31t29 -24.5v72q0 64 -51 89.5t-143 25.5q-133 0 -305 -95l-86 238q243 145 446 145q79 0 152.5 -11.5t148.5 -42t130 -76.5t89.5 -121t34.5 -170v-400h123v-262h-438l-49 92q-51 -70 -129 -100.5 t-148 -30.5q-60 0 -117 12.5t-109 39.5t-91 66.5t-62.5 97t-23.5 126.5zM162 1143q57 55 164 70.5t221 -27.5q64 -28 152 -37t167 5.5t111 51.5v205q-63 -57 -160.5 -70.5t-220.5 33.5q-113 55 -243 51.5t-191 -59.5v-223zM420 324q0 -42 31 -69.5t77 -27.5q43 0 79.5 21 t51.5 47v78q-35 59 -120 59q-59 0 -89 -29.5t-30 -78.5z" />
<glyph unicode="&#xe4;" horiz-adv-x="1228" d="M31 303q0 112 58.5 199t155 132.5t212.5 45.5q55 0 103.5 -16.5t69.5 -31t29 -24.5v72q0 64 -51 89.5t-143 25.5q-133 0 -305 -95l-86 238q243 145 446 145q79 0 152.5 -11.5t148.5 -42t130 -76.5t89.5 -121t34.5 -170v-400h123v-262h-438l-49 92q-51 -70 -129 -100.5 t-148 -30.5q-60 0 -117 12.5t-109 39.5t-91 66.5t-62.5 97t-23.5 126.5zM260 1198v172h193v-172h-193zM420 324q0 -42 31 -69.5t77 -27.5q43 0 79.5 21t51.5 47v78q-35 59 -120 59q-59 0 -89 -29.5t-30 -78.5zM588 1198v172h192v-172h-192z" />
<glyph unicode="&#xe6;" horiz-adv-x="1912" d="M31 303q0 112 58.5 199t155 132.5t212.5 45.5q55 0 103.5 -16.5t69.5 -31t29 -24.5v72q0 64 -51 89.5t-143 25.5q-133 0 -305 -95l-86 238q243 145 446 145q137 0 261.5 -38.5t201.5 -122.5q153 131 381 131q180 0 312 -82.5t177 -214.5q14 -40 22.5 -95t5.5 -126 t-23 -125h-646q5 -23 10 -39t20 -43t35.5 -43.5t58.5 -29.5t87 -13q169 0 287 98l172 -199q-111 -96 -237.5 -137t-290.5 -41q-129 0 -247.5 54t-193.5 159q-17 -44 -50 -79.5t-68.5 -57.5t-83.5 -38t-84 -23.5t-82 -11.5t-65.5 -4.5t-45.5 -0.5q-60 0 -117 12.5t-109 39.5 t-91 66.5t-62.5 97t-23.5 126.5zM420 324q0 -42 31 -69.5t77 -27.5q43 0 79.5 21t51.5 47v78q-35 59 -120 59q-59 0 -89 -29.5t-30 -78.5zM1219 612h309q-1 34 -6.5 59.5t-20.5 51t-46.5 39.5t-78.5 14q-44 0 -76 -17.5t-48 -46t-23.5 -52.5t-9.5 -48z" />
<glyph unicode="&#xe7;" horiz-adv-x="1087" d="M2 518q0 131 41.5 233.5t112.5 165t160 94t190 31.5q157 0 256 -116l35 98h241v-463h-301q-2 55 -13.5 100t-41.5 80t-74 35q-86 0 -133 -77t-47 -185q0 -103 57.5 -172t153.5 -70q78 -1 135.5 28t112.5 89l180 -209q-76 -83 -203 -143t-274 -66l-17 -43q84 12 112 4 q60 -17 48 -116q-10 -65 -47 -103t-82.5 -47.5t-89 -8.5t-74.5 7l-30 6l16 92q65 -33 135 -18.5t88 61.5q18 53 -52 53q-68 0 -155 -36l-4 -2l47 155q-102 12 -188 52t-152.5 106t-104.5 165t-38 220z" />
<glyph unicode="&#xe8;" horiz-adv-x="1110" d="M10 518q0 123 42.5 225t117 169t175 104t216.5 37q180 0 312.5 -82.5t177.5 -214.5q14 -40 22 -95t5 -125.5t-23 -125.5h-645q5 -23 10 -39t20 -43t35.5 -43.5t58.5 -29.5t87 -13q46 0 82 4.5t94.5 27.5t109.5 66l172 -199q-111 -96 -237.5 -137t-290.5 -41 q-79 0 -154 19.5t-146 63t-124 107t-85 157.5t-32 208zM330 1339l141 197l268 -369l-176 -90zM416 612h309q-1 34 -6.5 59.5t-20.5 51t-46.5 39.5t-78.5 14q-44 0 -76 -17.5t-48 -46t-23.5 -52.5t-9.5 -48z" />
<glyph unicode="&#xe9;" horiz-adv-x="1110" d="M10 518q0 123 42.5 225t117 169t175 104t216.5 37q180 0 312.5 -82.5t177.5 -214.5q14 -40 22 -95t5 -125.5t-23 -125.5h-645q5 -23 10 -39t20 -43t35.5 -43.5t58.5 -29.5t87 -13q46 0 82 4.5t94.5 27.5t109.5 66l172 -199q-111 -96 -237.5 -137t-290.5 -41 q-79 0 -154 19.5t-146 63t-124 107t-85 157.5t-32 208zM383 1167l176 -90l234 262l-142 197zM416 612h309q-1 34 -6.5 59.5t-20.5 51t-46.5 39.5t-78.5 14q-44 0 -76 -17.5t-48 -46t-23.5 -52.5t-9.5 -48z" />
<glyph unicode="&#xea;" horiz-adv-x="1110" d="M10 518q0 123 42.5 225t117 169t175 104t216.5 37q180 0 312.5 -82.5t177.5 -214.5q14 -40 22 -95t5 -125.5t-23 -125.5h-645q5 -23 10 -39t20 -43t35.5 -43.5t58.5 -29.5t87 -13q46 0 82 4.5t94.5 27.5t109.5 66l172 -199q-111 -96 -237.5 -137t-290.5 -41 q-79 0 -154 19.5t-146 63t-124 107t-85 157.5t-32 208zM158 1167l176 -90l233 166l240 -147l127 106l-303 230h-144zM416 612h309q-1 34 -6.5 59.5t-20.5 51t-46.5 39.5t-78.5 14q-44 0 -76 -17.5t-48 -46t-23.5 -52.5t-9.5 -48z" />
<glyph unicode="&#xeb;" horiz-adv-x="1110" d="M10 518q0 123 42.5 225t117 169t175 104t216.5 37q180 0 312.5 -82.5t177.5 -214.5q14 -40 22 -95t5 -125.5t-23 -125.5h-645q5 -23 10 -39t20 -43t35.5 -43.5t58.5 -29.5t87 -13q46 0 82 4.5t94.5 27.5t109.5 66l172 -199q-111 -96 -237.5 -137t-290.5 -41 q-79 0 -154 19.5t-146 63t-124 107t-85 157.5t-32 208zM299 1198v172h193v-172h-193zM416 612h309q-1 34 -6.5 59.5t-20.5 51t-46.5 39.5t-78.5 14q-44 0 -76 -17.5t-48 -46t-23.5 -52.5t-9.5 -48zM627 1198v172h192v-172h-192z" />
<glyph unicode="&#xec;" horiz-adv-x="675" d="M51 0v268h86v490h-86v266h475v-756h99v-268h-574zM104 1339l142 197l268 -369l-176 -90z" />
<glyph unicode="&#xed;" horiz-adv-x="675" d="M51 0v268h86v490h-86v266h475v-756h99v-268h-574zM137 1167l176 -90l234 262l-141 197z" />
<glyph unicode="&#xee;" horiz-adv-x="675" d="M-102 1167l176 -90l233 166l240 -147l127 106l-303 230h-144zM51 0v268h86v490h-86v266h475v-756h99v-268h-574z" />
<glyph unicode="&#xef;" horiz-adv-x="675" d="M51 0v268h86v490h-86v266h475v-756h99v-268h-574zM53 1198v172h193v-172h-193zM334 1198v172h192v-172h-192z" />
<glyph unicode="&#xf1;" horiz-adv-x="1325" d="M51 0v268h86v490h-86v266h436l48 -127q120 164 292 164q92 0 160 -27t107.5 -69t63.5 -104t32 -121t8 -130v-342h96v-268h-516v559q0 89 -12 124q-26 66 -102 67q-37 0 -63.5 -17t-40 -46t-19.5 -60.5t-6 -67.5v-291h147v-268h-631zM244 1143q57 55 164 70.5t221 -27.5 q64 -28 152 -37t167 5.5t111 51.5v205q-63 -57 -160.5 -70.5t-220.5 33.5q-113 55 -243 51.5t-191 -59.5v-223z" />
<glyph unicode="&#xf2;" horiz-adv-x="1175" d="M23 516q1 100 32 186.5t85 149t125 108t152.5 67.5t166.5 22q163 -2 289.5 -65t201.5 -186t78 -290q1 -124 -42 -226.5t-119.5 -169t-178.5 -103t-219 -36.5q-112 0 -213.5 34.5t-183 100.5t-128.5 171.5t-46 236.5zM348 1315l141 196l269 -368l-176 -90zM442 514 q0 -124 43 -201t109 -77q64 0 101.5 76.5t37.5 195.5t-39.5 196t-109.5 78q-60 0 -101 -77.5t-41 -190.5z" />
<glyph unicode="&#xf3;" horiz-adv-x="1175" d="M23 516q1 100 32 186.5t85 149t125 108t152.5 67.5t166.5 22q163 -2 289.5 -65t201.5 -186t78 -290q1 -124 -42 -226.5t-119.5 -169t-178.5 -103t-219 -36.5q-112 0 -213.5 34.5t-183 100.5t-128.5 171.5t-46 236.5zM410 1143l176 -90l233 262l-141 196zM442 514 q0 -124 43 -201t109 -77q64 0 101.5 76.5t37.5 195.5t-39.5 196t-109.5 78q-60 0 -101 -77.5t-41 -190.5z" />
<glyph unicode="&#xf4;" horiz-adv-x="1175" d="M23 516q1 100 32 186.5t85 149t125 108t152.5 67.5t166.5 22q163 -2 289.5 -65t201.5 -186t78 -290q1 -124 -42 -226.5t-119.5 -169t-178.5 -103t-219 -36.5q-112 0 -213.5 34.5t-183 100.5t-128.5 171.5t-46 236.5zM174 1167l176 -90l234 166l239 -147l127 106l-303 230 h-143zM442 514q0 -124 43 -201t109 -77q64 0 101.5 76.5t37.5 195.5t-39.5 196t-109.5 78q-60 0 -101 -77.5t-41 -190.5z" />
<glyph unicode="&#xf6;" horiz-adv-x="1175" d="M23 516q1 100 32 186.5t85 149t125 108t152.5 67.5t166.5 22q163 -2 289.5 -65t201.5 -186t78 -290q1 -124 -42 -226.5t-119.5 -169t-178.5 -103t-219 -36.5q-112 0 -213.5 34.5t-183 100.5t-128.5 171.5t-46 236.5zM324 1198v172h192v-172h-192zM442 514q0 -124 43 -201 t109 -77q64 0 101.5 76.5t37.5 195.5t-39.5 196t-109.5 78q-60 0 -101 -77.5t-41 -190.5zM651 1198v172h193v-172h-193z" />
<glyph unicode="&#xf7;" d="M86 516v111h1104v-111h-1104zM420 221q0 85 62 157.5t165 72.5t167.5 -72.5t64.5 -157.5q0 -92 -64.5 -154.5t-167.5 -62.5q-96 0 -161.5 67t-65.5 150zM420 913q0 85 62 157.5t165 72.5t167.5 -72.5t64.5 -157.5q0 -93 -63 -155t-169 -62q-93 0 -160 67.5t-67 149.5z " />
<glyph unicode="&#xf9;" d="M31 754v270h495v-494q0 -136 25 -197t86 -61q55 0 92 44t37 112v326h-135v270h530v-752h101v-272h-388l-55 129q-1 -1 -20.5 -24t-27.5 -30.5t-30 -28.5t-40.5 -30t-46 -22t-59 -18t-67.5 -5q-226 0 -318.5 119t-92.5 381v283h-86zM330 1339l141 197l268 -369l-176 -90z " />
<glyph unicode="&#xfa;" d="M31 754v270h495v-494q0 -136 25 -197t86 -61q55 0 92 44t37 112v326h-135v270h530v-752h101v-272h-388l-55 129q-1 -1 -20.5 -24t-27.5 -30.5t-30 -28.5t-40.5 -30t-46 -22t-59 -18t-67.5 -5q-226 0 -318.5 119t-92.5 381v283h-86zM412 1167l176 -90l233 262l-141 197z " />
<glyph unicode="&#xfb;" d="M31 754v270h495v-494q0 -136 25 -197t86 -61q55 0 92 44t37 112v326h-135v270h530v-752h101v-272h-388l-55 129q-1 -1 -20.5 -24t-27.5 -30.5t-30 -28.5t-40.5 -30t-46 -22t-59 -18t-67.5 -5q-226 0 -318.5 119t-92.5 381v283h-86zM178 1167l176 -90l234 166l239 -147 l127 106l-303 230h-143z" />
<glyph unicode="&#xfc;" d="M31 754v270h495v-494q0 -136 25 -197t86 -61q55 0 92 44t37 112v326h-135v270h530v-752h101v-272h-388l-55 129q-1 -1 -20.5 -24t-27.5 -30.5t-30 -28.5t-40.5 -30t-46 -22t-59 -18t-67.5 -5q-226 0 -318.5 119t-92.5 381v283h-86zM299 1198v172h193v-172h-193zM627 1198 v172h192v-172h-192z" />
<glyph unicode="&#x152;" horiz-adv-x="2181" d="M-72 723q0 208 86.5 371t242.5 252.5t355 89.5q241 0 408 -99v95h1235v-453h-354v182h-328v-282h389v-273h-389v-334h328v191h354v-463h-1235v96q-162 -98 -393 -98q-155 0 -282 45.5t-220.5 134t-145 227.5t-51.5 318zM410 723q0 -189 61.5 -303.5t155.5 -114.5 q91 0 144.5 110.5t53.5 293.5q0 123 -21.5 216.5t-71 152.5t-122.5 59q-89 0 -144.5 -116t-55.5 -298z" />
<glyph unicode="&#x153;" horiz-adv-x="1916" d="M31 516q1 100 32 186.5t85 149t125 108t152.5 67.5t166.5 22q239 -3 391 -131q150 135 385 135q180 0 312.5 -82.5t177.5 -214.5q14 -40 22 -95t5 -125.5t-23 -125.5h-645q5 -24 10 -39.5t20 -42.5t35.5 -43.5t58 -29.5t86.5 -13q169 0 287 98l172 -199 q-111 -96 -237.5 -137t-290.5 -41q-102 0 -200 34.5t-173 102.5q-151 -127 -383 -127q-112 0 -213.5 34.5t-183 100.5t-128.5 171.5t-46 236.5zM451 514q0 -124 43 -201t108 -77q64 0 101.5 76.5t37.5 195.5t-39.5 196t-109.5 78q-60 0 -100.5 -77.5t-40.5 -190.5zM1223 612 h309q-1 34 -6.5 59.5t-20.5 51t-46.5 39.5t-78.5 14q-44 0 -76 -17.5t-48 -46t-23.5 -52.5t-9.5 -48z" />
<glyph unicode="&#x2000;" horiz-adv-x="967" />
<glyph unicode="&#x2001;" horiz-adv-x="1935" />
<glyph unicode="&#x2002;" horiz-adv-x="967" />
<glyph unicode="&#x2003;" horiz-adv-x="1935" />
<glyph unicode="&#x2004;" horiz-adv-x="645" />
<glyph unicode="&#x2005;" horiz-adv-x="483" />
<glyph unicode="&#x2006;" horiz-adv-x="322" />
<glyph unicode="&#x2007;" horiz-adv-x="322" />
<glyph unicode="&#x2008;" horiz-adv-x="241" />
<glyph unicode="&#x2009;" horiz-adv-x="387" />
<glyph unicode="&#x200a;" horiz-adv-x="107" />
<glyph unicode="&#x2010;" horiz-adv-x="790" d="M96 352v273h594v-273h-594z" />
<glyph unicode="&#x2011;" horiz-adv-x="790" d="M96 352v273h594v-273h-594z" />
<glyph unicode="&#x2012;" horiz-adv-x="790" d="M96 352v273h594v-273h-594z" />
<glyph unicode="&#x2013;" horiz-adv-x="915" d="M66 352v273h772v-273h-772z" />
<glyph unicode="&#x2014;" d="M86 352v273h1104v-273h-1104z" />
<glyph unicode="&#x2018;" horiz-adv-x="628" d="M31 848q-6 194 82 375.5t249 324.5l236 -133q-115 -144 -162 -293.5t-33 -371.5z" />
<glyph unicode="&#x2019;" horiz-adv-x="628" d="M31 883q115 144 161.5 293.5t32.5 371.5l373 -98q6 -194 -82.5 -375.5t-249.5 -324.5z" />
<glyph unicode="&#x201c;" horiz-adv-x="1062" d="M4 848q-6 194 82.5 375.5t249.5 324.5l235 -133q-115 -144 -161.5 -293.5t-32.5 -371.5zM496 848q-6 194 82 375.5t249 324.5l236 -133q-115 -144 -162 -293.5t-33 -371.5z" />
<glyph unicode="&#x201d;" horiz-adv-x="1062" d="M4 883q115 144 162 293.5t33 371.5l372 -98q6 -194 -82 -375.5t-249 -324.5zM496 883q115 144 161.5 293.5t32.5 371.5l373 -98q6 -194 -82.5 -375.5t-249.5 -324.5z" />
<glyph unicode="&#x2022;" horiz-adv-x="712" d="M123 659q0 87 63 160.5t168 73.5t170.5 -74t65.5 -160q0 -96 -62 -158.5t-174 -62.5q-98 0 -164.5 68t-66.5 153z" />
<glyph unicode="&#x2026;" horiz-adv-x="2048" d="M238 213q0 87 63 160t168 73t170.5 -73.5t65.5 -159.5q0 -96 -62 -158.5t-174 -62.5q-98 0 -164.5 68t-66.5 153zM791 213q0 87 63 160t168 73t170 -73.5t65 -159.5q0 -96 -62 -158.5t-173 -62.5q-98 0 -164.5 68t-66.5 153zM1343 213q0 87 63.5 160t168.5 73t170 -73.5 t65 -159.5q0 -96 -62 -158.5t-173 -62.5q-98 0 -165 68t-67 153z" />
<glyph unicode="&#x202f;" horiz-adv-x="387" />
<glyph unicode="&#x205f;" horiz-adv-x="483" />
<glyph unicode="&#x20ac;" horiz-adv-x="1638" d="M2 530l49 142h164v30v33h-141l49 142h108q33 171 126.5 304t221 204t265.5 71q71 0 130.5 -11t97 -26t71 -37.5t48.5 -38t32 -36t20 -23.5l43 148h305v-605h-366q-4 120 -71.5 190t-162.5 70q-85 0 -151 -57.5t-101 -152.5h383l-49 -142h-362v-33v-30h340l-50 -142h-264 q32 -94 97.5 -149t156.5 -55q80 0 125 26.5t72 73.5h411v-426h-348l-63 129q-36 -61 -126.5 -104t-203.5 -43q-235 0 -407.5 147.5t-219.5 400.5h-229z" />
<glyph unicode="&#xe000;" horiz-adv-x="1024" d="M0 0v1024h1024v-1024h-1024z" />
</font>
</defs>
</svg>
