<?xml version="1.0" standalone="no"?>
<!DOCTYPE svg PUBLIC "-//W3C//DTD SVG 1.1//EN" "http://www.w3.org/Graphics/SVG/1.1/DTD/svg11.dtd" >
<svg xmlns="http://www.w3.org/2000/svg">
<metadata></metadata>
<defs>
<font id="sports_worldregular" horiz-adv-x="1386" >
<font-face units-per-em="2048" ascent="1638" descent="-410" />
<missing-glyph horiz-adv-x="786" />
<glyph horiz-adv-x="2048" />
<glyph horiz-adv-x="2048" />
<glyph unicode="&#xd;" horiz-adv-x="2048" />
<glyph unicode=" "  horiz-adv-x="786" />
<glyph unicode="&#x09;" horiz-adv-x="786" />
<glyph unicode="&#xa0;" horiz-adv-x="786" />
<glyph unicode="!" horiz-adv-x="765" d="M150 1434h466l-65 -973h-338zM209 0v309h348v-309h-348z" />
<glyph unicode="&#x22;" horiz-adv-x="905" d="M90 1495h299l-49 -596h-199zM512 1495h303l-51 -596h-199z" />
<glyph unicode="#" horiz-adv-x="1185" d="M57 426v199h158l27 211h-131v198h157l51 400h281l-51 -400h168l51 400h283l-52 -400h127v-198h-155l-27 -211h129v-199h-155l-52 -426h-282l53 426h-166l-55 -426h-281l55 426h-133zM496 625h168l28 211h-168z" />
<glyph unicode="$" horiz-adv-x="1366" d="M82 242v260h383l41 -150h88v211l-268 45l-244 201v391l278 234h234v194h178v-194h215l279 -234v-270h-383l-41 149h-70v-196l270 -45l240 -187v-409l-293 -242h-217v-195h-178v195h-221zM504 954l45 -34l45 -9v168h-37l-53 -41v-84zM772 352h33l51 43v97l-39 34l-45 6 v-180z" />
<glyph unicode="%" horiz-adv-x="1789" d="M90 840v471l150 123h376l150 -123v-473l-150 -125h-374zM328 942l34 -29h130l36 29v258l-34 29h-134l-32 -29v-258zM377 0l790 1434h238l-789 -1434h-239zM1024 125v471l147 123h381l148 -123v-473l-150 -123h-376zM1260 229l34 -28h131l33 28v258l-31 27h-133l-34 -27 v-258z" />
<glyph unicode="&#x26;" horiz-adv-x="1581" d="M90 221v334l258 197l-196 209v286l223 187h469l223 -187v-325l-233 -203l129 -148l233 203l195 -209l-234 -203l334 -362h-371l-172 178l-205 -178h-385zM502 330l47 -39h131l61 69l-157 172l-82 -67v-135zM522 1010l99 -99l110 97v104l-37 31h-137l-35 -31v-102z" />
<glyph unicode="'" horiz-adv-x="483" d="M90 1495h303l-53 -596h-199z" />
<glyph unicode="(" horiz-adv-x="634" d="M90 158v1114l225 366h230l-236 -381v-1101l223 -361h-217z" />
<glyph unicode=")" horiz-adv-x="634" d="M90 1638h229l226 -366v-1114l-226 -363h-217l224 361v1101z" />
<glyph unicode="*" horiz-adv-x="1085" d="M106 1270l107 180l225 -131v293h209v-293l225 131l107 -180l-279 -162l238 -238l-147 -147l-248 248l-248 -246l-148 147l238 236z" />
<glyph unicode="+" horiz-adv-x="1085" d="M90 604v209h348v348h209v-348h348v-209h-348v-350h-209v350h-348z" />
<glyph unicode="," horiz-adv-x="595" d="M49 -229l109 352v229h391v-284l-363 -347z" />
<glyph unicode="-" horiz-adv-x="880" d="M90 584v250h701v-250h-701z" />
<glyph unicode="." horiz-adv-x="571" d="M90 0v352h391v-352h-391z" />
<glyph unicode="/" horiz-adv-x="688" d="M-57 -168l530 1651h232l-531 -1651h-231z" />
<glyph unicode="0" d="M90 256v928l299 250h608l299 -250v-928q-52 -42 -155.5 -128t-155.5 -128h-586zM512 399l57 -47h248l57 47v637l-55 43h-252l-55 -43v-637z" />
<glyph unicode="1" horiz-adv-x="1077" d="M90 1305l463 129h211v-1082l197 -41v-311h-818v311l197 41v705l-164 -47z" />
<glyph unicode="2" horiz-adv-x="1366" d="M82 0v651l240 187l493 82l45 34v84l-53 41h-285l-41 -149h-383v270l279 234h627l278 -234v-391l-244 -201l-491 -82l-39 -34v-140h352l41 148h381v-500h-1200z" />
<glyph unicode="3" horiz-adv-x="1380" d="M90 242v260h383l41 -150h299l51 43v164l-49 41h-221v270h160l98 209h-297l-41 -149h-383v504h1145v-324l-178 -324l192 -157v-387l-293 -242h-616z" />
<glyph unicode="4" horiz-adv-x="1431" d="M90 444v258l674 732h420v-705h157v-285h-157v-108l155 -41v-295h-733v295l156 41v108h-672zM475 729h287v275z" />
<glyph unicode="5" horiz-adv-x="1380" d="M90 242v260h383l41 -150h299l51 43v189l-39 34h-731v816h1178v-353h-754v-131h533l239 -186v-522l-293 -242h-616z" />
<glyph unicode="6" horiz-adv-x="1380" d="M90 242v958l279 234h626l279 -234v-270h-383l-41 149h-285l-53 -41v-190h539l239 -186v-420l-293 -242h-616zM512 395l53 -43h248l51 43v154l-39 35h-313v-189z" />
<glyph unicode="7" horiz-adv-x="1259" d="M49 930v504h1145v-365l-477 -1069h-457l510 1079h-297l-41 -149h-383z" />
<glyph unicode="8" horiz-adv-x="1380" d="M90 242v387l143 119l-135 110v342l279 234h622l281 -234v-342l-133 -110l143 -119v-387l-293 -242h-616zM512 395l53 -43h248l51 43v178l-49 41h-250l-53 -41v-178zM516 905l49 -41h248l49 41v133l-49 41h-248l-49 -41v-133z" />
<glyph unicode="9" horiz-adv-x="1380" d="M90 805v393l281 236h633l282 -236v-958l-287 -240h-618l-289 240v262h383l41 -150h299l49 41v211h-530zM512 903l45 -35h307v168l-51 43h-248l-53 -43v-133z" />
<glyph unicode=":" horiz-adv-x="571" d="M90 0v352h391v-352h-391zM90 614v353h391v-353h-391z" />
<glyph unicode=";" horiz-adv-x="571" d="M-18 -229l108 352v229h391v-284l-362 -347zM90 614v353h391v-353h-391z" />
<glyph unicode="&#x3c;" horiz-adv-x="1128" d="M90 618v228l944 407v-229l-698 -293l698 -297v-227z" />
<glyph unicode="=" horiz-adv-x="1091" d="M90 496v166h907v-166h-907zM90 795v168h907v-168h-907z" />
<glyph unicode="&#x3e;" horiz-adv-x="1128" d="M90 207v227l698 297l-698 293v229l944 -407v-228z" />
<glyph unicode="?" horiz-adv-x="1282" d="M76 973v227l280 234h578l276 -234v-297l-417 -352v-121h-340v236l335 280v111l-49 41h-235l-49 -41v-84h-379zM449 0v309h348v-309h-348z" />
<glyph unicode="@" horiz-adv-x="1515" d="M90 223v998q149 121 256 213h823q107 -92 256 -213v-781l-180 -147h-121l-100 84l-98 -84h-324l-180 147v566l162 133h514v-656l84 -65h10l86 65v691l-168 137h-709l-163 -137v-906l176 -147h1011v-121h-1067zM569 483l86 -65h213l84 65v533h-309l-74 -58v-475z" />
<glyph unicode="A" horiz-adv-x="1587" d="M37 0v311l158 41l208 727l-133 41v314h828l276 -1082l176 -41v-311h-727v311l109 41l-37 127h-309l-35 -127l100 -41v-311h-614zM645 725h182l-92 322z" />
<glyph unicode="B" horiz-adv-x="1523" d="M90 0v311l156 41v727l-156 41v314h1053l278 -234v-344l-135 -111l144 -118v-385l-291 -242h-1049zM670 352h284l54 43v176l-50 41h-288v-260zM670 862h284l50 41v135l-50 41h-284v-217z" />
<glyph unicode="C" horiz-adv-x="1372" d="M90 274v895l318 265h591l279 -234v-270h-383l-41 149h-283l-59 -47v-631l61 -49h281l41 150h383v-260q-57 -48 -166 -138.5t-125 -103.5h-567z" />
<glyph unicode="D" horiz-adv-x="1533" d="M90 0v311l156 41v727l-156 41v314h995l359 -297v-830l-369 -307h-985zM670 352h260l90 74v582l-86 71h-264v-727z" />
<glyph unicode="E" horiz-adv-x="1443" d="M90 0v311l156 41v727l-156 41v314h1264v-504h-301l-41 149h-344v-231h344v-246h-344v-250h344l41 150h303v-502h-1266z" />
<glyph unicode="F" horiz-adv-x="1404" d="M90 0v311l156 41v727l-156 41v314h1264v-504h-301l-41 149h-344v-231h344v-246h-344v-250l196 -41v-311h-774z" />
<glyph unicode="G" horiz-adv-x="1380" d="M90 274v895l318 265h608l280 -234v-270h-381l-41 149h-303l-59 -47v-631l61 -49h238l63 54v196h-192v246h614v-848h-321l-41 113l-135 -113h-379z" />
<glyph unicode="H" horiz-adv-x="1691" d="M90 0v311l156 41v727l-156 41v314h674v-314l-94 -41v-231h346v231l-92 41v314h673v-314l-155 -41v-727l155 -41v-311h-673v311l92 41v250h-346v-250l94 -41v-311h-674z" />
<glyph unicode="I" horiz-adv-x="1015" d="M139 0v311l156 41v727l-156 41v314h733v-314l-155 -41v-727l155 -41v-311h-733z" />
<glyph unicode="J" horiz-adv-x="1445" d="M90 242v260h381l41 -150h270l62 49v678l-215 41v314h792v-314l-153 -41v-805l-330 -274h-557z" />
<glyph unicode="K" horiz-adv-x="1644" d="M90 0v311l156 41v727l-156 41v314h692v-314l-98 -41v-278l320 278l-101 41v314h684v-314l-198 -41l-232 -192l285 -535l145 -41v-311h-682v311l103 41l-160 287l-164 -137v-150l102 -41v-311h-696z" />
<glyph unicode="L" horiz-adv-x="1388" d="M90 0v311l156 41v727l-156 41v314h754v-314l-174 -41v-727h340l41 195h303v-547h-1264z" />
<glyph unicode="M" horiz-adv-x="1970" d="M90 0v311l156 41v727l-156 41v314h672l242 -441l245 441h627v-314l-152 -41v-727l152 -41v-311h-752v311l197 41v490l-258 -441h-160l-258 441v-490l197 -41v-311h-752z" />
<glyph unicode="N" horiz-adv-x="1681" d="M90 0v311l156 41v727l-156 41v314h615l425 -766v411l-155 41v314h672v-314l-156 -41v-1079h-414l-473 799v-447l156 -41v-311h-670z" />
<glyph unicode="O" d="M90 256v928l299 250h608l299 -250v-928q-52 -42 -155.5 -128t-155.5 -128h-586zM512 399l57 -47h248l57 47v637l-55 43h-252l-55 -43v-637z" />
<glyph unicode="P" horiz-adv-x="1497" d="M90 0v311l156 41v727l-156 41v314h1053l297 -250v-443l-297 -247h-473v-144l155 -41v-309h-735zM670 848h293l53 45v143l-53 43h-293v-231z" />
<glyph unicode="Q" d="M90 256v928l299 250h608l299 -250v-928l-118 -98l100 -158l108 -20v-332h-389l-206 352h-392zM512 399l57 -47h248l57 47v637l-55 43h-252l-55 -43v-637z" />
<glyph unicode="R" horiz-adv-x="1521" d="M90 0v311l156 41v727l-156 41v314h1065l277 -234v-428l-203 -172l155 -248l109 -20v-332h-389l-328 559h-106v-207l155 -41v-311h-735zM670 846h291l49 41v151l-49 41h-291v-233z" />
<glyph unicode="S" horiz-adv-x="1366" d="M82 242v260h383l41 -150h299l51 43v97l-39 34l-491 82l-244 201v391l278 234h627l279 -234v-270h-383l-41 149h-285l-53 -41v-84l45 -34l493 -82l240 -187v-409l-293 -242h-616z" />
<glyph unicode="T" horiz-adv-x="1492" d="M35 842v592h1425v-592h-301l-41 260h-157v-750l176 -41v-311h-775v311l175 41v750h-158l-41 -260h-303z" />
<glyph unicode="U" horiz-adv-x="1570" d="M37 1120v314h674v-314l-95 -41v-680l56 -47h237l54 47v680l-93 41v314h662v-314l-156 -41v-856l-268 -223h-645l-270 223v856z" />
<glyph unicode="V" horiz-adv-x="1587" d="M37 1120v314h725v-314l-100 -41l188 -624l180 624l-96 41v314h616v-314l-139 -41l-346 -1079h-565l-328 1079z" />
<glyph unicode="W" horiz-adv-x="2347" d="M37 1120v314h688v-314l-94 -41l168 -624l170 624l-97 41v314h740v-314l-101 -41l177 -624l157 624l-86 41v314h551v-314l-127 -41l-295 -1079h-534l-170 633l-178 -633h-568l-276 1079z" />
<glyph unicode="X" horiz-adv-x="1511" d="M37 0v311l108 41l342 398l-274 329l-168 41v314h756v-314l-111 -41l180 -217l162 217l-88 41v314h520v-314l-112 -41l-330 -383l297 -344l156 -41v-311h-773v311l117 41l-184 230l-170 -230l98 -41v-311h-526z" />
<glyph unicode="Y" horiz-adv-x="1449" d="M37 1120v314h661v-314l-84 -41l158 -239l160 239l-86 41v314h567v-314l-131 -41l-346 -465v-262l174 -41v-311h-774v311l176 41v260l-350 467z" />
<glyph unicode="Z" horiz-adv-x="1325" d="M45 0v287l635 794h-289l-41 -194h-303v547h1219v-291l-635 -791h299l41 195h303v-547h-1229z" />
<glyph unicode="[" horiz-adv-x="733" d="M90 -266v1966h553v-174h-231v-1618h231v-174h-553z" />
<glyph unicode="\" horiz-adv-x="688" d="M-14 1483h231l531 -1651h-232z" />
<glyph unicode="]" horiz-adv-x="733" d="M90 -92h232v1618h-232v174h553v-1966h-553v174z" />
<glyph unicode="^" horiz-adv-x="919" d="M90 1014l275 420h184l276 -420h-235l-133 229l-131 -229h-236z" />
<glyph unicode="_" horiz-adv-x="1196" d="M0 -66h1196v-98h-1196v98z" />
<glyph unicode="`" horiz-adv-x="806" d="M29 1735l61 219l602 -230l-41 -137z" />
<glyph unicode="a" horiz-adv-x="1486" d="M90 242v389l240 186l538 84v137l-53 41h-285l-41 -149h-383v270l279 234h627l278 -234v-846l156 -41v-313h-477l-41 113l-135 -113h-410zM516 395l51 -43h248l53 43v183l-313 -72l-39 -35v-76z" />
<glyph unicode="b" horiz-adv-x="1523" d="M90 0v311l156 41v727l-156 41v314h1053l278 -234v-344l-135 -111l144 -118v-385l-291 -242h-1049zM670 352h284l54 43v176l-50 41h-288v-260zM670 862h284l50 41v135l-50 41h-284v-217z" />
<glyph unicode="c" horiz-adv-x="1372" d="M90 274v895l318 265h591l279 -234v-270h-383l-41 149h-283l-59 -47v-631l61 -49h281l41 150h383v-260q-57 -48 -166 -138.5t-125 -103.5h-567z" />
<glyph unicode="d" horiz-adv-x="1533" d="M90 0v311l156 41v727l-156 41v314h995l359 -297v-830l-369 -307h-985zM670 352h260l90 74v582l-86 71h-264v-727z" />
<glyph unicode="e" horiz-adv-x="1366" d="M82 233v959l291 242h616l293 -242v-389l-240 -187l-538 -88v-133l53 -43h297l41 150h383v-260l-291 -242h-627zM504 877l313 51l39 35v75l-51 43h-248l-53 -43v-161z" />
<glyph unicode="f" horiz-adv-x="1404" d="M90 0v311l156 41v727l-156 41v314h1264v-504h-301l-41 149h-344v-231h344v-246h-344v-250l196 -41v-311h-774z" />
<glyph unicode="g" horiz-adv-x="1380" d="M90 274v895l318 265h608l280 -234v-270h-381l-41 149h-303l-59 -47v-631l61 -49h238l63 54v196h-192v246h614v-848h-321l-41 113l-135 -113h-379z" />
<glyph unicode="h" horiz-adv-x="1691" d="M90 0v311l156 41v727l-156 41v314h674v-314l-94 -41v-231h346v231l-92 41v314h673v-314l-155 -41v-727l155 -41v-311h-673v311l92 41v250h-346v-250l94 -41v-311h-674z" />
<glyph unicode="i" horiz-adv-x="1015" d="M139 0v311l156 41v727l-156 41v314h733v-314l-155 -41v-727l155 -41v-311h-733z" />
<glyph unicode="j" horiz-adv-x="1445" d="M90 242v260h381l41 -150h270l62 49v678l-215 41v314h792v-314l-153 -41v-805l-330 -274h-557z" />
<glyph unicode="k" horiz-adv-x="1644" d="M90 0v311l156 41v727l-156 41v314h692v-314l-98 -41v-278l320 278l-101 41v314h684v-314l-198 -41l-232 -192l285 -535l145 -41v-311h-682v311l103 41l-160 287l-164 -137v-150l102 -41v-311h-696z" />
<glyph unicode="l" horiz-adv-x="1388" d="M90 0v311l156 41v727l-156 41v314h754v-314l-174 -41v-727h340l41 195h303v-547h-1264z" />
<glyph unicode="m" horiz-adv-x="2469" d="M90 0v313l156 41v725l-156 41v314h455l41 -113l135 113h432l174 -144l172 144h432l293 -242v-838l156 -41v-313h-676v313l94 41v684l-51 43h-248l-53 -43v-684l94 -41v-313h-614v313l94 41v684l-51 43h-248l-53 -43v-684l94 -41v-313h-672z" />
<glyph unicode="n" horiz-adv-x="1691" d="M90 0v313l156 41v725l-156 41v314h455l41 -113l135 113h432l293 -242v-838l156 -41v-313h-676v313l94 41v684l-51 43h-248l-53 -43v-684l94 -41v-313h-672z" />
<glyph unicode="o" d="M90 256v928l299 250h608l299 -250v-928q-52 -42 -155.5 -128t-155.5 -128h-586zM512 399l57 -47h248l57 47v637l-55 43h-252l-55 -43v-637z" />
<glyph unicode="p" horiz-adv-x="1497" d="M90 0v311l156 41v727l-156 41v314h1053l297 -250v-443l-297 -247h-473v-144l155 -41v-309h-735zM670 848h293l53 45v143l-53 43h-293v-231z" />
<glyph unicode="q" horiz-adv-x="1388" d="M90 256v928l299 250h608l299 -250v-928l-118 -98l100 -158l108 -20v-332h-389l-206 352h-392zM512 399l57 -47h248l57 47v637l-55 43h-252l-55 -43v-637z" />
<glyph unicode="r" horiz-adv-x="1521" d="M90 0v311l156 41v727l-156 41v314h1065l277 -234v-428l-203 -172l155 -248l109 -20v-332h-389l-328 559h-106v-207l155 -41v-311h-735zM670 846h291l49 41v151l-49 41h-291v-233z" />
<glyph unicode="s" horiz-adv-x="1366" d="M82 242v260h383l41 -150h299l51 43v97l-39 34l-491 82l-244 201v391l278 234h627l279 -234v-270h-383l-41 149h-285l-53 -41v-84l45 -34l493 -82l240 -187v-409l-293 -242h-616z" />
<glyph unicode="t" horiz-adv-x="1492" d="M35 842v592h1425v-592h-301l-41 260h-157v-750l176 -41v-311h-775v311l175 41v750h-158l-41 -260h-303z" />
<glyph unicode="u" horiz-adv-x="1691" d="M90 1120v314h676v-314l-94 -41v-684l51 -43h248l53 43v684l-94 41v314h672v-314l-156 -41v-725l156 -41v-313h-455l-41 113l-135 -113h-432l-293 242v837z" />
<glyph unicode="v" horiz-adv-x="1587" d="M37 1120v314h725v-314l-100 -41l188 -624l180 624l-96 41v314h616v-314l-139 -41l-346 -1079h-565l-328 1079z" />
<glyph unicode="w" horiz-adv-x="2347" d="M37 1120v314h688v-314l-94 -41l168 -624l170 624l-97 41v314h740v-314l-101 -41l177 -624l157 624l-86 41v314h551v-314l-127 -41l-295 -1079h-534l-170 633l-178 -633h-568l-276 1079z" />
<glyph unicode="x" horiz-adv-x="1511" d="M37 0v311l108 41l342 398l-274 329l-168 41v314h756v-314l-111 -41l180 -217l162 217l-88 41v314h520v-314l-112 -41l-330 -383l297 -344l156 -41v-311h-773v311l117 41l-184 230l-170 -230l98 -41v-311h-526z" />
<glyph unicode="y" horiz-adv-x="1691" d="M90 1120v314h676v-314l-94 -41v-131l51 -43h301v174l-94 41v314h672v-314l-156 -41v-805l-330 -274h-557l-291 242v260h381l41 -150h271l61 49v193h-483l-293 242v243z" />
<glyph unicode="z" horiz-adv-x="1325" d="M45 0v287l635 794h-289l-41 -194h-303v547h1219v-291l-635 -791h299l41 195h303v-547h-1229z" />
<glyph unicode="{" horiz-adv-x="862" d="M90 647v141h137l47 62v590l238 198h256v-112h-190l-84 -70v-627l-121 -112l121 -111v-631l84 -67h190v-113h-256l-238 197v592l-47 63h-137z" />
<glyph unicode="|" horiz-adv-x="403" d="M90 -195v1678h219v-1678h-219z" />
<glyph unicode="}" horiz-adv-x="862" d="M90 -92h195l80 67v631l122 111l-122 112v627l-80 70h-195v112h256l238 -198v-590l47 -62h137v-141h-137l-47 -63v-592l-238 -197h-256v113z" />
<glyph unicode="~" horiz-adv-x="1042" d="M90 690q46 71 116 113.5t152 42.5q58 0 116.5 -24.5t112.5 -49t103 -24.5q50 0 88.5 24.5t91.5 83.5l82 -117q-47 -72 -116.5 -113.5t-149.5 -41.5q-59 0 -119 24.5t-115 49t-100 24.5q-50 0 -90.5 -26t-89.5 -83z" />
<glyph unicode="&#xa1;" horiz-adv-x="684" d="M109 0l63 973h338l65 -973h-466zM168 1124v310h346v-310h-346z" />
<glyph unicode="&#xa2;" horiz-adv-x="1372" d="M90 274v895l318 265h186v194h178v-194h227l279 -234v-270h-383l-41 149h-82v-727h82l41 150h383v-260q-57 -48 -166 -138.5t-125 -103.5h-215v-195h-178v195h-174zM512 401l61 -49h21v727h-23l-59 -47v-631z" />
<glyph unicode="&#xa5;" horiz-adv-x="1449" d="M37 1120v314h661v-314l-84 -41l158 -239l160 239l-86 41v314h567v-314l-131 -41l-137 -184h137v-117h-225l-88 -119h313v-118h-346v-189l174 -41v-311h-774v311l176 41v189h-350v118h313l-88 119h-225v117h137l-137 184z" />
<glyph unicode="&#xa6;" horiz-adv-x="440" d="M90 -195v820h260v-820h-260zM90 840v788h260v-788h-260z" />
<glyph unicode="&#xa8;" horiz-adv-x="1011" d="M90 1571v282h328v-282h-328zM592 1571v282h326v-282h-326z" />
<glyph unicode="&#xa9;" horiz-adv-x="1515" d="M90 223v998q149 121 256 213h823q107 -92 256 -213v-998l-270 -223h-797zM238 268l176 -147h686l178 147v906l-168 137h-709l-163 -137v-906zM422 440v566l162 133h342l172 -133v-152h-146l-26 162h-283l-74 -58v-475l86 -65h271l26 178h146v-156l-172 -147h-324z" />
<glyph unicode="&#xaa;" horiz-adv-x="786" d="M90 799v227l113 94h352v158l-47 37h-213l-45 -37v-68h-144v113l134 111h325l131 -111v-524l-143 -123h-315zM233 840l56 -49h209l57 49v159h-297l-25 -20v-139z" />
<glyph unicode="&#xab;" horiz-adv-x="851" d="M37 764l182 250h211l-188 -250l188 -250h-211zM420 764l184 250h211l-188 -250l188 -250h-211z" />
<glyph unicode="&#xad;" horiz-adv-x="880" d="M90 584v250h701v-250h-701z" />
<glyph unicode="&#xae;" horiz-adv-x="1359" d="M90 528v693l250 213h676l250 -213v-693l-265 -221h-645zM233 571l177 -143h538l174 143v605l-161 135h-564l-164 -135v-605zM383 551v98l78 21v424l-78 20v100h448l123 -98v-207l-125 -96h-34l92 -143l100 -21v-98h-203l-141 258h-37v-139l74 -21v-98h-297zM606 930h172 l33 26v113l-33 25h-172v-164z" />
<glyph unicode="&#xaf;" horiz-adv-x="872" d="M90 1640v193h692v-193h-692z" />
<glyph unicode="&#xb0;" horiz-adv-x="729" d="M90 1102v254l90 78h365l90 -78v-254l-92 -78h-359zM225 1165l35 -28h207l33 28v127l-31 29h-211l-33 -29v-127z" />
<glyph unicode="&#xb1;" horiz-adv-x="1097" d="M61 176v168h910v-168h-910zM90 776v168h352v293h201v-293h354v-168h-354v-295h-201v295h-352z" />
<glyph unicode="&#xb2;" horiz-adv-x="681" d="M41 895v326l119 92l248 41l22 18v41l-27 21h-143l-20 -74h-191v135l139 117h314l139 -117v-197l-123 -100l-246 -41l-18 -16v-70h176l21 74h190v-250h-600z" />
<glyph unicode="&#xb3;" horiz-adv-x="690" d="M45 1016v129h191l20 -74h150l26 21v82l-24 20h-111v135h80l49 105h-150l-20 -74h-190v252h571v-162l-90 -162l98 -80v-192l-147 -121h-308z" />
<glyph unicode="&#xb4;" horiz-adv-x="806" d="M111 1724l602 230l61 -219l-622 -148z" />
<glyph unicode="&#xb7;" horiz-adv-x="632" d="M145 571v310h349v-310h-349z" />
<glyph unicode="&#xb8;" horiz-adv-x="684" d="M90 -391h270l86 65v25l-86 65h-188v324l125 -53v-146h117l180 -147v-111l-180 -147h-324v125z" />
<glyph unicode="&#xb9;" horiz-adv-x="538" d="M45 1546l231 66h105v-541l98 -20v-156h-407v156l98 20v352l-82 -24z" />
<glyph unicode="&#xba;" horiz-adv-x="755" d="M90 797v526l131 111h311l134 -111v-526l-148 -121h-282zM229 840l60 -49h178l57 49v438l-45 37h-200l-50 -37v-438z" />
<glyph unicode="&#xbb;" horiz-adv-x="851" d="M37 514l188 250l-188 250h211l182 -250l-182 -250h-211zM420 514l192 250l-192 250h211l184 -250l-184 -250h-211z" />
<glyph unicode="&#xbc;" horiz-adv-x="1470" d="M90 1546l232 66h104v-541l98 -20v-156h-407v156l98 20v352l-82 -24zM301 -168l530 1651h232l-531 -1651h-231zM756 16v129l336 367h211v-352h77v-144h-77v-53l77 -20v-148h-366v148l78 20v53h-336zM948 160h144v137z" />
<glyph unicode="&#xbd;" horiz-adv-x="1546" d="M90 1546l232 66h104v-541l98 -20v-156h-407v156l98 20v352l-82 -24zM301 -168l530 1651h232l-531 -1651h-231zM856 121l119 92l248 41l22 18v41l-26 21h-144l-20 -74h-191v135l140 117h313l139 -117v-196l-123 -101l-246 -41l-18 -16v-70h176l21 74h190v-250h-600v326z " />
<glyph unicode="&#xbe;" horiz-adv-x="1624" d="M90 1016v129h191l20 -74h150l26 21v82l-24 20h-111v135h80l49 105h-149l-21 -74h-190v252h571v-162l-90 -162l98 -80v-192l-147 -121h-307zM434 -168l531 1651h231l-530 -1651h-232zM909 16v129l336 367h211v-352h78v-144h-78v-53l78 -20v-148h-367v148l78 20v53h-336z M1102 160h143v137z" />
<glyph unicode="&#xbf;" horiz-adv-x="1308" d="M88 231v297l418 353v123h342v-238l-338 -281v-110l49 -41h238l49 41v86h377v-230l-279 -231h-577zM502 1124v310h348v-310h-348z" />
<glyph unicode="&#xc0;" horiz-adv-x="1587" d="M37 0v311l158 41l208 727l-133 41v314h828l276 -1082l176 -41v-311h-727v311l109 41l-37 127h-309l-35 -127l100 -41v-311h-614zM451 1735l61 219l602 -230l-41 -137zM645 725h182l-92 322z" />
<glyph unicode="&#xc1;" horiz-adv-x="1587" d="M37 0v311l158 41l208 727l-133 41v314h828l276 -1082l176 -41v-311h-727v311l109 41l-37 127h-309l-35 -127l100 -41v-311h-614zM471 1724l602 230l62 -219l-623 -148zM645 725h182l-92 322z" />
<glyph unicode="&#xc2;" horiz-adv-x="1587" d="M37 0v311l158 41l208 727l-133 41v314h828l276 -1082l176 -41v-311h-727v311l109 41l-37 127h-309l-35 -127l100 -41v-311h-614zM348 1577l297 307h186l291 -307h-262l-121 186l-129 -186h-262zM645 725h182l-92 322z" />
<glyph unicode="&#xc3;" horiz-adv-x="1587" d="M37 0v311l158 41l208 727l-133 41v314h828l276 -1082l176 -41v-311h-727v311l109 41l-37 127h-309l-35 -127l100 -41v-311h-614zM483 1714q46 71 116.5 113.5t152.5 42.5q59 0 116.5 -24.5t111.5 -49t107 -24.5q47 0 88.5 26.5t88.5 81.5l82 -117q-47 -72 -117 -113.5 t-150 -41.5q-59 0 -119 24.5t-115 49t-100 24.5q-50 0 -90.5 -26t-89.5 -83zM645 725h182l-92 322z" />
<glyph unicode="&#xc4;" horiz-adv-x="1587" d="M37 0v311l158 41l208 727l-133 41v314h828l276 -1082l176 -41v-311h-727v311l109 41l-37 127h-309l-35 -127l100 -41v-311h-614zM322 1571v282h327v-282h-327zM645 725h182l-92 322zM823 1571v282h326v-282h-326z" />
<glyph unicode="&#xc5;" horiz-adv-x="1587" d="M37 0v311l158 41l208 727l-133 41v314h828l276 -1082l176 -41v-311h-727v311l109 41l-37 127h-309l-35 -127l100 -41v-311h-614zM530 1737q0 75 60.5 129.5t144.5 54.5t144.5 -54.5t60.5 -129.5q0 -76 -60 -130.5t-145 -54.5t-145 54.5t-60 130.5zM645 725h182l-92 322z M653 1737q0 -26 24 -44t58 -18t58 18t24 44q0 25 -24 43t-58 18t-58 -18t-24 -43z" />
<glyph unicode="&#xc6;" horiz-adv-x="2134" d="M33 0v311l157 41l209 727l-133 41v314h1770v-463h-301l-41 108h-344v-231h219l20 82h226v-428h-226l-20 100h-219v-250h344l41 109h303v-461h-1219v311l109 41v127h-346l-35 -127l100 -41v-311h-614zM641 725h287v322h-197z" />
<glyph unicode="&#xc7;" horiz-adv-x="1372" d="M90 274v895l318 265h591l279 -234v-270h-383l-41 149h-283l-59 -47v-631l61 -49h281l41 150h383v-260q-57 -48 -166 -138.5t-125 -103.5h-264v-111h117l180 -147v-111l-180 -147h-324v125h270l86 65v25l-86 65h-188v236h-178z" />
<glyph unicode="&#xc8;" horiz-adv-x="1443" d="M90 0v311l156 41v727l-156 41v314h1264v-504h-301l-41 149h-344v-231h344v-246h-344v-250h344l41 150h303v-502h-1266zM379 1735l61 219l602 -230l-41 -137z" />
<glyph unicode="&#xc9;" horiz-adv-x="1443" d="M90 0v311l156 41v727l-156 41v314h1264v-504h-301l-41 149h-344v-231h344v-246h-344v-250h344l41 150h303v-502h-1266zM399 1724l602 230l62 -219l-623 -148z" />
<glyph unicode="&#xca;" horiz-adv-x="1443" d="M90 0v311l156 41v727l-156 41v314h1264v-504h-301l-41 149h-344v-231h344v-246h-344v-250h344l41 150h303v-502h-1266zM334 1577l297 307h186l291 -307h-262l-121 186l-129 -186h-262z" />
<glyph unicode="&#xcb;" horiz-adv-x="1443" d="M90 0v311l156 41v727l-156 41v314h1264v-504h-301l-41 149h-344v-231h344v-246h-344v-250h344l41 150h303v-502h-1266zM307 1571v282h328v-282h-328zM809 1571v282h326v-282h-326z" />
<glyph unicode="&#xcc;" horiz-adv-x="1015" d="M139 0v311l156 41v727l-156 41v314h733v-314l-155 -41v-727l155 -41v-311h-733zM166 1735l61 219l602 -230l-41 -137z" />
<glyph unicode="&#xcd;" horiz-adv-x="1015" d="M139 0v311l156 41v727l-156 41v314h733v-314l-155 -41v-727l155 -41v-311h-733zM186 1724l602 230l62 -219l-623 -148z" />
<glyph unicode="&#xce;" horiz-adv-x="1015" d="M121 1577l297 307h186l291 -307h-262l-121 186l-129 -186h-262zM139 0v311l156 41v727l-156 41v314h733v-314l-155 -41v-727l155 -41v-311h-733z" />
<glyph unicode="&#xcf;" horiz-adv-x="1015" d="M94 1571v282h328v-282h-328zM139 0v311l156 41v727l-156 41v314h733v-314l-155 -41v-727l155 -41v-311h-733zM596 1571v282h326v-282h-326z" />
<glyph unicode="&#xd0;" horiz-adv-x="1533" d="M90 0v311l156 41v232h-156v250h156v245l-156 41v314h995l359 -297v-830l-369 -307h-985zM670 352h260l90 74v582l-86 71h-264v-245h121v-250h-121v-232z" />
<glyph unicode="&#xd1;" horiz-adv-x="1681" d="M90 0v311l156 41v727l-156 41v314h615l425 -766v411l-155 41v314h672v-314l-156 -41v-1079h-414l-473 799v-447l156 -41v-311h-670zM530 1714q46 71 116.5 113.5t152.5 42.5q59 0 116.5 -24.5t112 -49t107.5 -24.5q47 0 87.5 26.5t88.5 81.5l82 -117q-47 -72 -117 -113.5 t-150 -41.5q-47 0 -95 15.5t-82 33.5t-76.5 33.5t-79.5 15.5q-50 0 -91 -26.5t-90 -82.5z" />
<glyph unicode="&#xd2;" d="M90 256v928l299 250h608l299 -250v-928q-52 -42 -155.5 -128t-155.5 -128h-586zM350 1735l62 219l602 -230l-41 -137zM512 399l57 -47h248l57 47v637l-55 43h-252l-55 -43v-637z" />
<glyph unicode="&#xd3;" d="M90 256v928l299 250h608l299 -250v-928q-52 -42 -155.5 -128t-155.5 -128h-586zM371 1724l602 230l61 -219l-622 -148zM512 399l57 -47h248l57 47v637l-55 43h-252l-55 -43v-637z" />
<glyph unicode="&#xd4;" d="M90 256v928l299 250h608l299 -250v-928q-52 -42 -155.5 -128t-155.5 -128h-586zM305 1577l297 307h186l291 -307h-262l-121 186l-129 -186h-262zM512 399l57 -47h248l57 47v637l-55 43h-252l-55 -43v-637z" />
<glyph unicode="&#xd5;" d="M90 256v928l299 250h608l299 -250v-928q-52 -42 -155.5 -128t-155.5 -128h-586zM383 1714q46 71 116 113.5t152 42.5q59 0 116.5 -24.5t112 -49t107.5 -24.5q47 0 87.5 26.5t88.5 81.5l82 -117q-47 -72 -116.5 -113.5t-149.5 -41.5q-59 0 -119 24.5t-115 49t-100 24.5 q-50 0 -90.5 -26t-89.5 -83zM512 399l57 -47h248l57 47v637l-55 43h-252l-55 -43v-637z" />
<glyph unicode="&#xd6;" d="M90 256v928l299 250h608l299 -250v-928q-52 -42 -155.5 -128t-155.5 -128h-586zM279 1571v282h327v-282h-327zM512 399l57 -47h248l57 47v637l-55 43h-252l-55 -43v-637zM780 1571v282h326v-282h-326z" />
<glyph unicode="&#xd7;" horiz-adv-x="970" d="M90 463l248 246l-248 245l148 148l247 -246l246 246l148 -148l-246 -245l248 -248l-148 -148l-248 248l-247 -246z" />
<glyph unicode="&#xd8;" d="M29 76l114 135l-53 45v928l299 250h608l101 -84l102 123l137 -115l-102 -123l61 -51v-928q-52 -42 -155.5 -128t-155.5 -128h-586l-118 98l-115 -137zM512 651l338 404l-31 24h-252l-55 -43v-385zM524 389l45 -37h248l57 47v406z" />
<glyph unicode="&#xd9;" horiz-adv-x="1570" d="M37 1120v314h674v-314l-95 -41v-680l56 -47h237l54 47v680l-93 41v314h662v-314l-156 -41v-856l-268 -223h-645l-270 223v856zM442 1735l62 219l602 -230l-41 -137z" />
<glyph unicode="&#xda;" horiz-adv-x="1570" d="M37 1120v314h674v-314l-95 -41v-680l56 -47h237l54 47v680l-93 41v314h662v-314l-156 -41v-856l-268 -223h-645l-270 223v856zM463 1724l602 230l61 -219l-622 -148z" />
<glyph unicode="&#xdb;" horiz-adv-x="1570" d="M37 1120v314h674v-314l-95 -41v-680l56 -47h237l54 47v680l-93 41v314h662v-314l-156 -41v-856l-268 -223h-645l-270 223v856zM397 1577l297 307h187l290 -307h-262l-121 186l-129 -186h-262z" />
<glyph unicode="&#xdc;" horiz-adv-x="1570" d="M37 1120v314h674v-314l-95 -41v-680l56 -47h237l54 47v680l-93 41v314h662v-314l-156 -41v-856l-268 -223h-645l-270 223v856zM371 1571v282h327v-282h-327zM872 1571v282h326v-282h-326z" />
<glyph unicode="&#xdd;" horiz-adv-x="1449" d="M37 1120v314h661v-314l-84 -41l158 -239l160 239l-86 41v314h567v-314l-131 -41l-346 -465v-262l174 -41v-311h-774v311l176 41v260l-350 467zM403 1724l603 230l61 -219l-623 -148z" />
<glyph unicode="&#xde;" horiz-adv-x="1497" d="M90 0v311l156 41v731l-156 41v312h580v-228h473l297 -250v-401l-297 -248h-473v-309h-580zM670 623h293l53 45v143l-53 43h-293v-231z" />
<glyph unicode="&#xdf;" horiz-adv-x="1523" d="M90 0v311l156 41v373l-156 41v313h166v121l279 234h608l278 -234v-344l-135 -111l144 -118v-385l-291 -242h-367v352h182l54 43v176l-50 41h-186v250h182l50 41v135l-50 41h-284v-837l-291 -242h-289z" />
<glyph unicode="&#xe0;" horiz-adv-x="1486" d="M90 242v389l240 186l538 84v137l-53 41h-285l-41 -149h-383v270l279 234h627l278 -234v-846l156 -41v-313h-477l-41 113l-135 -113h-410zM426 1735l61 219l603 -230l-41 -137zM516 395l51 -43h248l53 43v183l-313 -72l-39 -35v-76z" />
<glyph unicode="&#xe1;" horiz-adv-x="1486" d="M90 242v389l240 186l538 84v137l-53 41h-285l-41 -149h-383v270l279 234h627l278 -234v-846l156 -41v-313h-477l-41 113l-135 -113h-410zM446 1724l603 230l61 -219l-623 -148zM516 395l51 -43h248l53 43v183l-313 -72l-39 -35v-76z" />
<glyph unicode="&#xe2;" horiz-adv-x="1486" d="M90 242v389l240 186l538 84v137l-53 41h-285l-41 -149h-383v270l279 234h627l278 -234v-846l156 -41v-313h-477l-41 113l-135 -113h-410zM381 1577l297 307h186l291 -307h-262l-121 186l-129 -186h-262zM516 395l51 -43h248l53 43v183l-313 -72l-39 -35v-76z" />
<glyph unicode="&#xe3;" horiz-adv-x="1486" d="M90 242v389l240 186l538 84v137l-53 41h-285l-41 -149h-383v270l279 234h627l278 -234v-846l156 -41v-313h-477l-41 113l-135 -113h-410zM459 1714q46 71 116 113.5t152 42.5q59 0 116.5 -24.5t112 -49t107.5 -24.5q47 0 87.5 26.5t88.5 81.5l82 -117 q-47 -72 -116.5 -113.5t-149.5 -41.5q-59 0 -119 24.5t-115 49t-100 24.5q-50 0 -90.5 -26t-89.5 -83zM516 395l51 -43h248l53 43v183l-313 -72l-39 -35v-76z" />
<glyph unicode="&#xe4;" horiz-adv-x="1486" d="M90 242v389l240 186l538 84v137l-53 41h-285l-41 -149h-383v270l279 234h627l278 -234v-846l156 -41v-313h-477l-41 113l-135 -113h-410zM274 1571v282h328v-282h-328zM516 395l51 -43h248l53 43v183l-313 -72l-39 -35v-76zM776 1571v282h326v-282h-326z" />
<glyph unicode="&#xe5;" horiz-adv-x="1486" d="M90 242v389l240 186l538 84v137l-53 41h-285l-41 -149h-383v270l279 234h627l278 -234v-846l156 -41v-313h-477l-41 113l-135 -113h-410zM516 395l51 -43h248l53 43v183l-313 -72l-39 -35v-76zM563 1737q0 75 60.5 129.5t144.5 54.5t144.5 -54.5t60.5 -129.5 q0 -76 -60 -130.5t-145 -54.5t-145 54.5t-60 130.5zM686 1737q0 -26 24 -44t58 -18t58 18t24 44q0 25 -24 43t-58 18t-58 -18t-24 -43z" />
<glyph unicode="&#xe6;" horiz-adv-x="2158" d="M90 242v409l240 187l493 82l45 34v84l-53 41h-235l-50 -41v-88h-424v250l279 234h627l73 -62l74 62h617l292 -242v-410l-239 -186l-494 -82l-45 -35v-84l53 -41h236l49 41v88h424v-250l-278 -233h-805l-41 113l-135 -113h-410zM516 395l51 -43h248l53 43v183l-313 -52 l-39 -34v-97zM1290 856l314 51l38 35v96l-51 43h-248l-53 -43v-182z" />
<glyph unicode="&#xe7;" horiz-adv-x="1372" d="M90 274v895l318 265h591l279 -234v-270h-383l-41 149h-283l-59 -47v-631l61 -49h281l41 150h383v-260q-57 -48 -166 -138.5t-125 -103.5h-264v-111h117l180 -147v-111l-180 -147h-324v125h270l86 65v25l-86 65h-188v236h-178z" />
<glyph unicode="&#xe8;" horiz-adv-x="1366" d="M82 233v959l291 242h616l293 -242v-389l-240 -187l-538 -88v-133l53 -43h297l41 150h383v-260l-291 -242h-627zM340 1735l61 219l603 -230l-41 -137zM504 877l313 51l39 35v75l-51 43h-248l-53 -43v-161z" />
<glyph unicode="&#xe9;" horiz-adv-x="1366" d="M82 233v959l291 242h616l293 -242v-389l-240 -187l-538 -88v-133l53 -43h297l41 150h383v-260l-291 -242h-627zM360 1724l603 230l61 -219l-623 -148zM504 877l313 51l39 35v75l-51 43h-248l-53 -43v-161z" />
<glyph unicode="&#xea;" horiz-adv-x="1366" d="M82 233v959l291 242h616l293 -242v-389l-240 -187l-538 -88v-133l53 -43h297l41 150h383v-260l-291 -242h-627zM295 1577l297 307h186l291 -307h-262l-121 186l-129 -186h-262zM504 877l313 51l39 35v75l-51 43h-248l-53 -43v-161z" />
<glyph unicode="&#xeb;" horiz-adv-x="1366" d="M82 233v959l291 242h616l293 -242v-389l-240 -187l-538 -88v-133l53 -43h297l41 150h383v-260l-291 -242h-627zM268 1571v282h328v-282h-328zM504 877l313 51l39 35v75l-51 43h-248l-53 -43v-161zM770 1571v282h326v-282h-326z" />
<glyph unicode="&#xec;" horiz-adv-x="1015" d="M139 0v311l156 41v727l-156 41v314h733v-314l-155 -41v-727l155 -41v-311h-733zM166 1735l61 219l602 -230l-41 -137z" />
<glyph unicode="&#xed;" horiz-adv-x="1015" d="M139 0v311l156 41v727l-156 41v314h733v-314l-155 -41v-727l155 -41v-311h-733zM186 1724l602 230l62 -219l-623 -148z" />
<glyph unicode="&#xee;" horiz-adv-x="1015" d="M121 1577l297 307h186l291 -307h-262l-121 186l-129 -186h-262zM139 0v311l156 41v727l-156 41v314h733v-314l-155 -41v-727l155 -41v-311h-733z" />
<glyph unicode="&#xef;" horiz-adv-x="1015" d="M94 1571v282h328v-282h-328zM139 0v311l156 41v727l-156 41v314h733v-314l-155 -41v-727l155 -41v-311h-733zM596 1571v282h326v-282h-326z" />
<glyph unicode="&#xf0;" horiz-adv-x="1533" d="M90 0v311l156 41v232h-156v250h156v245l-156 41v314h995l359 -297v-830l-369 -307h-985zM670 352h260l90 74v582l-86 71h-264v-245h121v-250h-121v-232z" />
<glyph unicode="&#xf1;" horiz-adv-x="1691" d="M90 0v313l156 41v725l-156 41v314h455l41 -113l135 113h432l293 -242v-838l156 -41v-313h-676v313l94 41v684l-51 43h-248l-53 -43v-684l94 -41v-313h-672zM537 1714q46 71 116 113.5t152 42.5q59 0 116.5 -24.5t112 -49t107.5 -24.5q47 0 87.5 26.5t88.5 81.5l82 -117 q-47 -72 -116.5 -113.5t-149.5 -41.5q-59 0 -119 24.5t-115 49t-100 24.5q-50 0 -91 -26.5t-90 -82.5z" />
<glyph unicode="&#xf2;" d="M90 256v928l299 250h608l299 -250v-928q-52 -42 -155.5 -128t-155.5 -128h-586zM350 1735l62 219l602 -230l-41 -137zM512 399l57 -47h248l57 47v637l-55 43h-252l-55 -43v-637z" />
<glyph unicode="&#xf3;" d="M90 256v928l299 250h608l299 -250v-928q-52 -42 -155.5 -128t-155.5 -128h-586zM371 1724l602 230l61 -219l-622 -148zM512 399l57 -47h248l57 47v637l-55 43h-252l-55 -43v-637z" />
<glyph unicode="&#xf4;" d="M90 256v928l299 250h608l299 -250v-928q-52 -42 -155.5 -128t-155.5 -128h-586zM305 1577l297 307h186l291 -307h-262l-121 186l-129 -186h-262zM512 399l57 -47h248l57 47v637l-55 43h-252l-55 -43v-637z" />
<glyph unicode="&#xf5;" d="M90 256v928l299 250h608l299 -250v-928q-52 -42 -155.5 -128t-155.5 -128h-586zM383 1714q46 71 116 113.5t152 42.5q59 0 116.5 -24.5t112 -49t107.5 -24.5q47 0 87.5 26.5t88.5 81.5l82 -117q-47 -72 -116.5 -113.5t-149.5 -41.5q-59 0 -119 24.5t-115 49t-100 24.5 q-50 0 -90.5 -26t-89.5 -83zM512 399l57 -47h248l57 47v637l-55 43h-252l-55 -43v-637z" />
<glyph unicode="&#xf6;" d="M90 256v928l299 250h608l299 -250v-928q-52 -42 -155.5 -128t-155.5 -128h-586zM279 1571v282h327v-282h-327zM512 399l57 -47h248l57 47v637l-55 43h-252l-55 -43v-637zM780 1571v282h326v-282h-326z" />
<glyph unicode="&#xf8;" d="M29 76l114 135l-53 45v928l299 250h608l101 -84l102 123l137 -115l-102 -123l61 -51v-928q-52 -42 -155.5 -128t-155.5 -128h-586l-118 98l-115 -137zM512 651l338 404l-31 24h-252l-55 -43v-385zM524 389l45 -37h248l57 47v406z" />
<glyph unicode="&#xf9;" horiz-adv-x="1691" d="M90 1120v314h676v-314l-94 -41v-684l51 -43h248l53 43v684l-94 41v314h672v-314l-156 -41v-725l156 -41v-313h-455l-41 113l-135 -113h-432l-293 242v837zM504 1735l61 219l602 -230l-41 -137z" />
<glyph unicode="&#xfa;" horiz-adv-x="1691" d="M90 1120v314h676v-314l-94 -41v-684l51 -43h248l53 43v684l-94 41v314h672v-314l-156 -41v-725l156 -41v-313h-455l-41 113l-135 -113h-432l-293 242v837zM524 1724l602 230l62 -219l-623 -148z" />
<glyph unicode="&#xfb;" horiz-adv-x="1691" d="M90 1120v314h676v-314l-94 -41v-684l51 -43h248l53 43v684l-94 41v314h672v-314l-156 -41v-725l156 -41v-313h-455l-41 113l-135 -113h-432l-293 242v837zM459 1577l297 307h186l291 -307h-262l-121 186l-129 -186h-262z" />
<glyph unicode="&#xfc;" horiz-adv-x="1691" d="M90 1120v314h676v-314l-94 -41v-684l51 -43h248l53 43v684l-94 41v314h672v-314l-156 -41v-725l156 -41v-313h-455l-41 113l-135 -113h-432l-293 242v837zM432 1571v282h328v-282h-328zM934 1571v282h326v-282h-326z" />
<glyph unicode="&#xfd;" horiz-adv-x="1691" d="M90 1120v314h676v-314l-94 -41v-131l51 -43h301v174l-94 41v314h672v-314l-156 -41v-805l-330 -274h-557l-291 242v260h381l41 -150h271l61 49v193h-483l-293 242v243zM524 1724l602 230l62 -219l-623 -148z" />
<glyph unicode="&#xfe;" horiz-adv-x="1497" d="M90 0v311l156 41v731l-156 41v312h580v-228h473l297 -250v-401l-297 -248h-473v-309h-580zM670 623h293l53 45v143l-53 43h-293v-231z" />
<glyph unicode="&#xff;" horiz-adv-x="1691" d="M90 1120v314h676v-314l-94 -41v-131l51 -43h301v174l-94 41v314h672v-314l-156 -41v-805l-330 -274h-557l-291 242v260h381l41 -150h271l61 49v193h-483l-293 242v243zM432 1571v282h328v-282h-328zM934 1571v282h326v-282h-326z" />
<glyph unicode="&#x152;" horiz-adv-x="2076" d="M90 256v928l299 250h1596v-504h-302l-41 149h-344v-231h344v-246h-344v-250h344l41 150h304v-502h-1588zM512 399l57 -47h248l57 47v637l-55 43h-252l-55 -43v-637z" />
<glyph unicode="&#x153;" horiz-adv-x="2166" d="M90 256v928l299 250h608l84 -72l86 72h617l293 -242v-389l-240 -187l-539 -88v-133l54 -43h297l41 150h383v-260l-291 -242h-627l-84 70q-26 -22 -86 -70h-586zM512 399l57 -47h248l57 47v637l-55 43h-252l-55 -43v-637zM1298 877l314 51l39 35v75l-52 43h-247l-54 -43 v-161z" />
<glyph unicode="&#x178;" horiz-adv-x="1449" d="M37 1120v314h661v-314l-84 -41l158 -239l160 239l-86 41v314h567v-314l-131 -41l-346 -465v-262l174 -41v-311h-774v311l176 41v260l-350 467zM311 1571v282h328v-282h-328zM813 1571v282h326v-282h-326z" />
<glyph unicode="&#x2c6;" horiz-adv-x="958" d="M90 1577l297 307h186l291 -307h-262l-121 186l-129 -186h-262z" />
<glyph unicode="&#x2dc;" horiz-adv-x="1042" d="M90 1714q46 71 116 113.5t152 42.5q59 0 116.5 -24.5t112 -49t107.5 -24.5q47 0 87.5 26.5t88.5 81.5l82 -117q-47 -72 -116.5 -113.5t-149.5 -41.5q-59 0 -119 24.5t-115 49t-100 24.5q-50 0 -90.5 -26t-89.5 -83z" />
<glyph unicode="&#x2000;" horiz-adv-x="977" />
<glyph unicode="&#x2001;" horiz-adv-x="1954" />
<glyph unicode="&#x2002;" horiz-adv-x="977" />
<glyph unicode="&#x2003;" horiz-adv-x="1954" />
<glyph unicode="&#x2004;" horiz-adv-x="651" />
<glyph unicode="&#x2005;" horiz-adv-x="488" />
<glyph unicode="&#x2006;" horiz-adv-x="325" />
<glyph unicode="&#x2007;" horiz-adv-x="325" />
<glyph unicode="&#x2008;" horiz-adv-x="244" />
<glyph unicode="&#x2009;" horiz-adv-x="390" />
<glyph unicode="&#x200a;" horiz-adv-x="108" />
<glyph unicode="&#x2010;" horiz-adv-x="880" d="M90 584v250h701v-250h-701z" />
<glyph unicode="&#x2011;" horiz-adv-x="880" d="M90 584v250h701v-250h-701z" />
<glyph unicode="&#x2012;" horiz-adv-x="880" d="M90 584v250h701v-250h-701z" />
<glyph unicode="&#x2013;" horiz-adv-x="1517" d="M37 625v215h1446v-215h-1446z" />
<glyph unicode="&#x2014;" horiz-adv-x="2140" d="M37 625v215h2066v-215h-2066z" />
<glyph unicode="&#x2018;" horiz-adv-x="536" d="M90 1241v234h270v-177l86 -352l-108 -51z" />
<glyph unicode="&#x2019;" horiz-adv-x="536" d="M90 946l86 352v177h270v-234l-247 -346z" />
<glyph unicode="&#x201a;" horiz-adv-x="536" d="M90 -229l86 352v176h270v-231l-247 -347z" />
<glyph unicode="&#x201c;" horiz-adv-x="954" d="M90 1241v234h270v-177l86 -352l-108 -51zM508 1241v234h270v-177l86 -352l-108 -51z" />
<glyph unicode="&#x201d;" horiz-adv-x="954" d="M90 946l86 352v177h270v-234l-247 -346zM508 946l86 352v177h270v-234l-248 -346z" />
<glyph unicode="&#x201e;" horiz-adv-x="954" d="M90 -229l86 352v176h270v-231l-247 -347zM508 -229l86 352v176h270v-231l-248 -347z" />
<glyph unicode="&#x2022;" horiz-adv-x="950" d="M90 573v306l223 186h320l223 -186v-306l-223 -184h-320z" />
<glyph unicode="&#x2026;" horiz-adv-x="2238" d="M90 0v309h348v-309h-348zM946 0v309h346v-309h-346zM1798 0v309h346v-309h-346z" />
<glyph unicode="&#x202f;" horiz-adv-x="390" />
<glyph unicode="&#x205f;" horiz-adv-x="488" />
<glyph unicode="&#x20ac;" horiz-adv-x="1622" d="M90 541l43 118h211v119h-172l43 117h129v274l318 265h591l279 -234v-229h-383l-41 108h-283l-59 -47v-137h467l-43 -117h-424v-119h385l-43 -118h-342v-140l61 -49h281l41 109h383v-219q-57 -48 -166.5 -138.5t-124.5 -103.5h-567l-330 274v267h-254z" />
<glyph unicode="&#x2122;" horiz-adv-x="1794" d="M27 1303v296h712v-296h-151l-21 131h-78v-375l89 -21v-155h-388v155l86 21v375h-77l-21 -131h-151zM811 883v155l78 21v362l-78 21v157h336l121 -221l123 221h313v-157l-76 -21v-362l76 -21v-155h-375v155l98 21v244l-129 -220h-79l-129 220v-244l98 -21v-155h-377z" />
<glyph unicode="&#xe000;" horiz-adv-x="1433" d="M0 0v1434h1434v-1434h-1434z" />
</font>
</defs>
</svg>
